<?xml version="1.0" standalone="no"?>
<!DOCTYPE svg PUBLIC "-//W3C//DTD SVG 1.1//EN" "http://www.w3.org/Graphics/SVG/1.1/DTD/svg11.dtd" >
<svg xmlns="http://www.w3.org/2000/svg">
<metadata></metadata>
<defs>
<font id="hackmanextrabold" horiz-adv-x="570" >
<font-face units-per-em="1000" ascent="750" descent="-250" />
<missing-glyph horiz-adv-x="300" />
<glyph unicode="&#xfb01;" horiz-adv-x="709" d="M103 500v23q0 127 82 167q42 20 110 20q64 0 160 -18l-19 -104q-68 11 -95 11q-13 0 -23 -2q-23 -1 -36.5 -8t-21 -23t-7.5 -43v-23h401v-500h-149v388h-252v-388h-150v388h-88v112h88zM656 567h-153v122h153v-122z" />
<glyph unicode="&#xfb02;" horiz-adv-x="784" d="M103 500v23q0 127 82 167q42 20 109 20q48 0 112 -10h247v-541q0 -29 9.5 -41.5t28.5 -14.5h11q18 0 45 7l18 -103q-76 -17 -116 -17q-76 1 -111 39.5t-35 121.5v437h-67q-68 11 -95 11q-13 0 -23 -2q-23 -1 -36.5 -8t-21 -23t-7.5 -43v-23h166v-112h-166v-388h-150v388 h-88v112h88z" />
<glyph horiz-adv-x="1000" />
<glyph horiz-adv-x="1000" />
<glyph unicode="&#xd;" horiz-adv-x="1000" />
<glyph unicode=" "  horiz-adv-x="300" />
<glyph unicode="&#x09;" horiz-adv-x="300" />
<glyph unicode="&#xa0;" horiz-adv-x="300" />
<glyph unicode="!" horiz-adv-x="228" d="M177 210h-127l-15 490h158zM192 1h-156v157h156v-157z" />
<glyph unicode="&#x22;" horiz-adv-x="408" d="M154 502h-107l-12 248h131zM361 502h-107l-12 248h131z" />
<glyph unicode="#" horiz-adv-x="682" d="M572 528h75v-104h-91l-20 -127h77v-105h-94l-30 -192h-131l31 192h-140l-31 -192h-130l31 192h-84v105h100l20 127h-86v104h103l27 172h130l-27 -172h140l27 172h130zM285 424l-20 -127h140l21 127h-141z" />
<glyph unicode="$" horiz-adv-x="607" d="M369 787v-81q80 -5 179 -29l-22 -121q-126 31 -212 31q-127 0 -127 -67q0 -33 27.5 -47.5t141.5 -46.5q44 -13 71.5 -22.5t54.5 -23t42 -28.5t27 -37t16.5 -50t4.5 -67t-10.5 -71t-29 -54t-44.5 -38.5t-55.5 -25.5t-63.5 -14v-83h-138v79l-19 2q-78 5 -176 21l21 125 q119 -25 213 -25q148 0 148 86q0 16 -6 28.5t-13.5 20.5t-27 15.5t-34 11.5t-46.5 13q-13 3 -21 5q-73 21 -116.5 39.5t-71 44t-37.5 56.5t-10 78q0 160 196 188v87h138z" />
<glyph unicode="%" horiz-adv-x="954" d="M303 -17h-143l492 734h143zM204.5 710q35.5 0 62.5 -7t45.5 -21t31 -31t19 -40.5t9 -45.5t2.5 -49q0 -33 -3.5 -59t-14.5 -52t-29.5 -43.5t-49.5 -28.5t-73 -11t-73 11t-49 28.5t-29 43.5t-14.5 52t-3.5 59q0 27 2.5 49t9 45t19 40.5t30.5 31.5t45.5 21t63 7zM204.5 611 q-36.5 0 -48.5 -22.5t-12 -72.5t12 -72.5t48.5 -22.5t48.5 22.5t12 72.5t-12 72.5t-48.5 22.5zM749.5 378q41.5 0 72.5 -10.5t49.5 -28t29.5 -44t14.5 -52.5t3.5 -58.5t-3.5 -58.5t-14.5 -52.5t-29 -44t-49 -28.5t-73 -11t-73 11t-49 28.5t-29 44t-15 52.5t-4 58.5t4 58.5 t14.5 52.5t29 44t49.5 28t72.5 10.5zM750 279q-36 0 -48.5 -22t-12.5 -73q0 -33 4.5 -52.5t18 -31t38.5 -11.5q36 0 48 22.5t12 72.5q0 34 -4 53t-17.5 30.5t-38.5 11.5z" />
<glyph unicode="&#x26;" horiz-adv-x="768" d="M179 375l-47 48q-21 22 -31 45.5t-11 34.5t-1 33q0 73 53.5 117.5t153.5 44.5q97 0 150.5 -43t53.5 -119q0 -32 -11 -55t-39 -48l-74 -65l108 -112q17 42 18 97h126q0 -116 -42 -202l148 -153h-191l-45 46q-78 -65 -196 -65q-91 0 -152 25t-88 68t-27 102q0 73 56 123z M283 464l62 54q12 11 12 28q0 51 -64 51q-66 0 -66 -52q0 -23 11 -34zM273 277l-55 -48q-30 -26 -30 -56q0 -36 31.5 -55t87.5 -19q69 0 101 38z" />
<glyph unicode="'" horiz-adv-x="201" d="M154 502h-107l-12 248h131z" />
<glyph unicode="(" horiz-adv-x="311" d="M200 747l76 -88q-57 -54 -72.5 -98.5t-15.5 -144.5v-256q0 -96 15.5 -140t72.5 -98l-76 -88q-99 62 -132 129t-33 197v256q0 134 33 201.5t132 129.5z" />
<glyph unicode=")" horiz-adv-x="311" d="M35 659l76 88q68 -43 103 -85.5t48.5 -98.5t13.5 -147v-256q0 -130 -33 -197t-132 -129l-76 88q57 54 72.5 98t15.5 140v256q0 100 -15.5 144.5t-72.5 98.5z" />
<glyph unicode="*" horiz-adv-x="457" d="M276 594l117 38l29 -91l-117 -38l73 -99l-77 -56l-72 100l-73 -100l-76 56l72 99l-117 38l29 91l117 -38v123h95v-123z" />
<glyph unicode="+" horiz-adv-x="557" d="M341 351h181v-121h-181v-183h-125v183h-181v121h181v183h125v-183z" />
<glyph unicode="," horiz-adv-x="270" d="M168 -99h-133l52 247h148z" />
<glyph unicode="-" horiz-adv-x="438" d="M403 231h-368v121h368v-121z" />
<glyph unicode="." horiz-adv-x="225" d="M190 0h-155v157h155v-157z" />
<glyph unicode="/" horiz-adv-x="440" d="M170 -17h-143l243 734h143z" />
<glyph unicode="0" horiz-adv-x="649" d="M324.5 689q69.5 0 120.5 -18t81 -48t47.5 -76.5t23.5 -94.5t6 -112t-6 -112t-23.5 -94.5t-47.5 -76.5t-81 -48t-120.5 -18t-120.5 18t-81 48t-47.5 76.5t-23.5 94.5t-6 112t6 112t23.5 94.5t47.5 76.5t81 48t120.5 18zM324.5 569q-76.5 0 -101.5 -48.5t-25 -180.5 t25 -180.5t101.5 -48.5t101.5 48.5t25 180.5t-25 180.5t-101.5 48.5z" />
<glyph unicode="1" horiz-adv-x="444" d="M381 0h-152v494l-132 -87l-76 105l253 168h107v-680z" />
<glyph unicode="2" horiz-adv-x="543" d="M58 530l-22 120q116 40 229 40q42 0 77 -6t66 -20.5t52.5 -37t34 -57.5t12.5 -79q0 -83 -42 -127.5t-159 -73.5q-37 -8 -56.5 -15t-35.5 -20.5t-22 -33t-6 -51.5v-49h322v-120h-476l2 168q0 109 61 166t180 82q50 12 65 26t15 47q0 44 -23.5 62.5t-70.5 18.5 q-17 0 -35 -2t-44.5 -7.5t-38 -8.5t-46.5 -12t-39 -10z" />
<glyph unicode="3" horiz-adv-x="571" d="M501 576l-171 -170q17 2 33 2q19 0 36 -2q62 -13 96 -60.5t34 -129.5q0 -122 -66.5 -173.5t-199.5 -51.5q-91 0 -235 23l21 115q12 -2 45 -6.5t51 -7t44 -5t46 -2.5q73 0 107 25t34 83q0 101 -94 101q-43 0 -113 -24l-46 81l197 186h-270v120h451v-104z" />
<glyph unicode="4" horiz-adv-x="616" d="M497 283h84v-120h-84v-164h-152v164h-320v94l273 424h199v-398zM184 283h161v250z" />
<glyph unicode="5" horiz-adv-x="563" d="M501 560h-295v-120q54 13 98 13q104 0 161.5 -59.5t57.5 -177.5q0 -123 -65.5 -174.5t-190.5 -51.5q-78 0 -232 25l21 122q141 -26 187 -26q67 0 97.5 24t30.5 81q0 62 -22 89t-68 27q-52 0 -172 -42l-54 77v313h446v-120z" />
<glyph unicode="6" horiz-adv-x="593" d="M546 665l-19 -119q-149 23 -203 23q-43 0 -67.5 -12t-38.5 -46.5t-18 -99.5q93 34 161 34q89 0 142.5 -55t53.5 -173q0 -40 -6.5 -72.5t-24 -61.5t-45.5 -49t-72 -31.5t-103 -11.5q-66 0 -114.5 19t-76 49t-43.5 77.5t-21 94t-5 109.5q0 102 18 171t55.5 107.5t86 54.5 t116.5 16q76 0 224 -24zM325 332q-40 0 -125 -32q0 -32 1.5 -55.5t6 -46t12 -37.5t19 -27t28 -17.5t39.5 -5.5q58 0 79 25t21 82q0 60 -20 87t-61 27z" />
<glyph unicode="7" horiz-adv-x="532" d="M509 578l-256 -579h-160l248 561h-314v121h482v-103z" />
<glyph unicode="8" horiz-adv-x="602" d="M62 485v21q0 85 61 134t178 49q120 0 180 -49.5t60 -133.5v-21q0 -96 -83 -130q98 -32 98 -130v-51q0 -87 -63 -135t-192 -48q-131 0 -193 48.5t-62 134.5v51q0 99 98 131q-82 34 -82 129zM392 489v12q0 34 -21 51t-70 17q-47 0 -68.5 -17t-21.5 -51v-12q0 -68 90 -68 q48 0 69.5 17t21.5 51zM411 183v32q0 26 -9.5 44t-34.5 28.5t-66 10.5q-110 0 -110 -83v-32q0 -39 24.5 -57t85.5 -18q60 0 85 18t25 57z" />
<glyph unicode="9" horiz-adv-x="594" d="M48 14l19 120q149 -23 204 -23q43 0 67 12t38.5 46.5t17.5 98.5q-93 -34 -161 -34q-89 0 -142.5 55.5t-53.5 172.5q0 51 11.5 89.5t38.5 71t78 49.5t123 17q48 0 86.5 -10t65.5 -26.5t46.5 -42t31.5 -53.5t19 -65.5t9 -72.5t2 -80q0 -68 -8 -121t-24.5 -91.5t-39.5 -64.5 t-54.5 -42t-67.5 -22.5t-81 -6.5q-78 0 -225 23zM288 569q-58 0 -79 -25.5t-21 -81.5q0 -61 20.5 -87.5t61.5 -26.5q40 0 124 31q0 39 -2.5 66t-9 51.5t-18 39.5t-30.5 24t-46 9z" />
<glyph unicode=":" horiz-adv-x="225" d="M190 348h-155v157h155v-157zM190 0h-155v157h155v-157z" />
<glyph unicode=";" horiz-adv-x="277" d="M242 348h-155v157h155v-157zM168 -99h-133l52 247h148z" />
<glyph unicode="&#x3c;" horiz-adv-x="566" d="M531 384l-341 -120l341 -121v-136l-496 193v127l496 193v-136z" />
<glyph unicode="=" horiz-adv-x="591" d="M557 300h-522v121h522v-121zM557 78h-522v120h522v-120z" />
<glyph unicode="&#x3e;" horiz-adv-x="566" d="M531 327v-127l-496 -193v136l341 121l-341 120v136z" />
<glyph unicode="?" horiz-adv-x="526" d="M56 554l-21 121q112 35 214 35q53 0 95 -10.5t76 -33t52.5 -62.5t18.5 -95q0 -29 -9 -54.5t-21.5 -41.5t-34 -32.5t-36 -24.5t-37.5 -19q-3 -1 -7 -4q-16 -7 -23.5 -11.5t-17 -12t-13.5 -17t-4 -21.5v-61h-152v61q0 28 10 53.5t23 41.5t35.5 32.5t36.5 24t37 18.5 q5 3 7 4q28 13 41 26t13 38q0 44 -23.5 62.5t-70.5 18.5q-50 0 -189 -36zM289 4h-155v154h155v-154z" />
<glyph unicode="@" horiz-adv-x="807" d="M598 40l20 -105q-88 -43 -214 -43q-135 0 -214.5 40.5t-117 131.5t-37.5 247q0 210 94 304.5t275 94.5t274.5 -94.5t93.5 -304.5q0 -166 -132 -193q-33 -7 -105 -7h-58l-5 22q-68 -29 -119 -29q-65 0 -102.5 47t-37.5 141q0 95 37.5 142.5t104.5 47.5q50 0 112 -25l5 20 h93v-260h2q48 1 67.5 18.5t19.5 75.5q0 85 -14.5 142t-47 90.5t-77.5 47.5t-111.5 14t-111.5 -14t-77 -47.5t-47 -90.5t-15 -142q0 -98 12 -158t42.5 -95.5t76 -48t120.5 -12.5q122 0 194 43zM449 206v175q-44 12 -71 12q-25 0 -37 -23.5t-12 -77.5q0 -101 45 -101 q26 0 75 15z" />
<glyph unicode="A" horiz-adv-x="712" d="M691 0h-164l-45 138h-252l-45 -138h-164l252 700h167zM265 259h182l-91 276z" />
<glyph unicode="B" horiz-adv-x="632" d="M63 700h322q55 0 96.5 -17.5t66.5 -56.5t25 -98q0 -28 -2.5 -48.5t-10 -42.5t-24.5 -37t-43 -23q107 -30 107 -163q0 -113 -51.5 -163.5t-152.5 -50.5h-333v700zM216 580v-152h140q62 0 62 76q0 38 -16.5 57t-45.5 19h-140zM216 307v-187h158q36 0 56.5 23t20.5 71 q0 46 -20.5 69.5t-56.5 23.5h-158z" />
<glyph unicode="C" horiz-adv-x="583" d="M528 140l21 -119q-132 -29 -217 -29q-67 0 -117 17.5t-89.5 57.5t-59.5 111t-20 173q0 68 9.5 122.5t27.5 93.5t42.5 67t58 44t70 23.5t80.5 7.5q84 0 215 -29l-21 -119q-137 27 -180 27q-52 0 -83.5 -20t-48.5 -73t-17 -144q0 -70 9 -116t28.5 -73t46 -38t65.5 -11 q43 0 180 27z" />
<glyph unicode="D" horiz-adv-x="674" d="M63 700h258q48 0 88 -6.5t70 -20t53.5 -31t39.5 -42t27 -51t17.5 -60t9 -66.5t2.5 -73q0 -66 -7 -115t-26.5 -95.5t-53 -75.5t-89 -46.5t-131.5 -17.5h-258v700zM216 579v-458h105q40 0 66.5 7t44.5 22t27 43.5t12.5 64.5t3.5 92q0 69 -5.5 110t-22.5 69.5t-46.5 39 t-79.5 10.5h-105z" />
<glyph unicode="E" horiz-adv-x="576" d="M537 579h-321v-151h301v-121h-301v-186h326v-121h-479v700h474v-121z" />
<glyph unicode="F" horiz-adv-x="560" d="M527 579h-311v-162h291v-120h-291v-297h-153v700h464v-121z" />
<glyph unicode="G" horiz-adv-x="666" d="M608 416v-357q-155 -67 -279 -67q-61 0 -110.5 18.5t-89 58.5t-61.5 111.5t-22 169.5q0 99 21 169.5t61 111.5t92 59t121 18q105 0 261 -43l-29 -117q-7 1 -29 6.5t-29.5 7t-26 6t-26.5 6t-23.5 4.5t-24.5 4.5t-21 3t-21.5 2t-19.5 0.5q-52 0 -84.5 -21t-50.5 -74 t-18 -143q0 -70 10.5 -118.5t30 -73.5t42.5 -35.5t52 -10.5q47 0 121 24v158h-133v122h286z" />
<glyph unicode="H" horiz-adv-x="677" d="M614 0h-153v301h-245v-301h-153v700h153v-279h245v279h153v-700z" />
<glyph unicode="I" horiz-adv-x="274" d="M215 0h-153v700h153v-700z" />
<glyph unicode="J" horiz-adv-x="289" d="M226 700v-559q0 -93 -12.5 -150t-45.5 -91q-53 -55 -192 -68l-18 100q35 11 55 21.5t33 28.5q27 40 27 159v559h153z" />
<glyph unicode="K" horiz-adv-x="678" d="M406 408l244 -408h-167l-173 294l-94 -114v-180h-153v700h153v-318l253 318h181z" />
<glyph unicode="L" horiz-adv-x="543" d="M216 121h306v-121h-459v700h153v-579z" />
<glyph unicode="M" horiz-adv-x="889" d="M825 0h-152v461l-185 -371h-93l-184 371v-461h-153v700h185l199 -401l198 401h185v-700z" />
<glyph unicode="N" horiz-adv-x="705" d="M647 0h-155l-281 437v-437h-153v700h155l281 -438v438h153v-700z" />
<glyph unicode="O" horiz-adv-x="689" d="M345 707q55 0 99.5 -9.5t75.5 -26t53.5 -42.5t35.5 -54.5t21 -67.5t10.5 -75t2.5 -82.5t-2.5 -82.5t-10.5 -75t-21 -67t-35.5 -54.5t-53.5 -43t-75.5 -26t-100 -9.5t-99.5 9.5t-75 26t-54 43t-36 54.5t-21 67t-10.5 75t-2.5 82q0 41 2 73t7.5 67t15.5 61.5t25 52.5t38 44 t52.5 32t69.5 21t89 7zM345 587q-33 0 -56 -4.5t-39.5 -17t-26.5 -29t-15.5 -45.5t-7 -61t-1.5 -81q0 -58 2.5 -94t11 -66.5t25 -45.5t42 -23t65.5 -8q28 0 48.5 4t36.5 11.5t26.5 21.5t17.5 31t10.5 44t5 55.5t1.5 69.5q0 59 -3 95t-11.5 66.5t-25 45.5t-42 23t-64.5 8z " />
<glyph unicode="P" horiz-adv-x="618" d="M63 700h311q99 0 157.5 -60.5t58.5 -165.5q0 -109 -58.5 -168t-157.5 -59h-158v-247h-153v700zM216 580v-212h133q41 0 64.5 26t23.5 80q0 52 -23.5 79t-64.5 27h-133z" />
<glyph unicode="Q" horiz-adv-x="716" d="M641 -87l-355 84q-38 5 -69 15t-54.5 25t-42 34t-31 43t-21 49.5t-13.5 57t-7 62t-2 66.5q0 66 6.5 115.5t26 97.5t53 78t89 48.5t132.5 18.5q55 0 99.5 -9.5t76 -25.5t55 -42t38 -55t23.5 -67t12 -75t3 -84q0 -117 -26 -192.5t-97 -113.5l123 -21zM353 587 q-49 0 -79 -11.5t-47 -42t-22.5 -72t-5.5 -112.5q0 -55 3.5 -92t13 -66.5t27 -45.5t44 -24.5t66.5 -8.5q49 0 79 11.5t47 42t22.5 72t5.5 112t-5.5 112t-22.5 72t-47 42t-79 11.5z" />
<glyph unicode="R" horiz-adv-x="660" d="M63 700h317q96 0 152.5 -58.5t56.5 -160.5q0 -72 -28 -121t-79 -71l148 -289h-163l-135 262h-116v-262h-153v700zM217 580v-197h138q38 0 59.5 24.5t21.5 73.5t-21.5 74t-59.5 25h-138z" />
<glyph unicode="S" horiz-adv-x="600" d="M29 14l22 125q119 -25 212 -25q148 0 148 86q0 16 -5.5 28.5t-13.5 20.5t-27.5 15.5t-33.5 11.5t-46 13q-14 3 -21 5q-74 21 -117 39.5t-71 44t-37.5 56.5t-9.5 78q0 54 22 93t62.5 61t89.5 32t109 10q105 0 230 -31l-22 -121q-127 31 -213 31q-127 0 -127 -67 q0 -33 27.5 -47.5t142.5 -46.5q44 -13 71 -22.5t54.5 -23t42 -28.5t27 -37t17 -50t4.5 -67q0 -48 -16 -85t-43 -60t-65 -38t-77.5 -20.5t-86.5 -5.5q-98 0 -249 25z" />
<glyph unicode="T" horiz-adv-x="586" d="M565 579h-195v-579h-153v579h-196v121h544v-121z" />
<glyph unicode="U" horiz-adv-x="680" d="M622 700v-384q0 -48 -2 -81t-9 -69.5t-19 -61t-32.5 -47.5t-50 -36t-71 -21t-95.5 -8t-96 8t-71.5 21t-50 36t-32.5 47.5t-19 61t-9 69.5t-2 81v384h153v-384q0 -38 0.5 -61.5t2.5 -47t5.5 -36t10.5 -25.5t15 -18t22.5 -9.5t30.5 -5.5t39.5 -1t39.5 1t30.5 5.5t22.5 9.5 t15.5 18t10.5 25.5t5 36t2.5 47t0.5 61.5v384h153z" />
<glyph unicode="V" horiz-adv-x="690" d="M433 0h-176l-236 700h164l160 -535l160 535h164z" />
<glyph unicode="W" horiz-adv-x="1029" d="M844 0h-207l-122 457l-123 -457h-206l-164 700h161l109 -535l142 535h161l142 -535l109 535h161z" />
<glyph unicode="X" horiz-adv-x="715" d="M470 358l224 -358h-173l-160 259l-167 -259h-173l229 359l-215 341h173l153 -241l145 241h173z" />
<glyph unicode="Y" horiz-adv-x="699" d="M426 239v-239h-153v239l-252 461h168l161 -324l160 324h168z" />
<glyph unicode="Z" horiz-adv-x="594" d="M555 599l-324 -478h330v-121h-528v101l324 478h-311v121h509v-101z" />
<glyph unicode="[" horiz-adv-x="350" d="M310 616h-135v-623h140v-113h-280v850h275v-114z" />
<glyph unicode="\" horiz-adv-x="440" d="M413 -17h-143l-243 734h143z" />
<glyph unicode="]" horiz-adv-x="350" d="M315 -120h-280v113h140v623h-135v114h275v-850z" />
<glyph unicode="^" horiz-adv-x="667" d="M632 298h-171l-127 265l-127 -265h-172l207 402h183z" />
<glyph unicode="_" horiz-adv-x="567" d="M532 -155h-497v96h497v-96z" />
<glyph unicode="`" horiz-adv-x="302" d="M267 565h-114l-118 152h126z" />
<glyph unicode="a" horiz-adv-x="553" d="M91 379l-16 102q126 27 208 27q221 0 221 -175v-333h-112l-7 35q-102 -43 -184 -43q-78 0 -124 41t-46 126q0 81 54.5 116.5t152.5 39.5q14 1 30 1q39 0 86 -4v21q0 65 -103 65q-47 0 -160 -19zM354 133v97q-46 5 -78 5q-61 0 -81.5 -15.5t-20.5 -51.5q0 -66 65 -66 q47 0 115 31z" />
<glyph unicode="b" d="M203 750v-266q78 26 137 26q93 0 143.5 -64.5t50.5 -197.5q0 -40 -4.5 -73t-14.5 -63t-26.5 -52t-41 -38t-58.5 -24t-78 -8q-109 0 -258 53v707h150zM203 378v-260q65 -17 106 -17q40 0 57.5 33.5t17.5 113.5t-17.5 114t-57.5 34q-41 0 -106 -18z" />
<glyph unicode="c" horiz-adv-x="505" d="M456 120l19 -107q-121 -23 -199 -23q-121 1 -180.5 60.5t-59.5 199.5q0 141 60 200.5t182 59.5q76 0 197 -23l-19 -107q-118 21 -155 21q-64 0 -90 -33.5t-26 -117.5q0 -57 11.5 -89.5t36.5 -47t68 -14.5q37 0 155 21z" />
<glyph unicode="d" d="M516 0h-111l-7 33q-100 -43 -173 -43q-89 0 -139 64.5t-50 193.5q0 133 50 197.5t143 64.5q60 0 138 -26v266h149v-750zM367 124v254q-66 18 -106 18t-58 -34t-18 -114t17.5 -113.5t52.5 -33.5q39 0 112 23z" />
<glyph unicode="e" d="M494 136l20 -109q-124 -35 -217 -35q-261 0 -261 258q0 39 3.5 69t13 61t28 53t46 40t70 26.5t96.5 8.5q48 0 85 -7t63 -19t44.5 -32t29 -40t16 -48.5t7.5 -53.5t2 -58v-42h-353q1 -103 123 -103q76 0 184 31zM186 290h204q0 69 -18.5 94t-78.5 25q-63 0 -85 -26t-22 -93 z" />
<glyph unicode="f" horiz-adv-x="445" d="M103 500v23q0 127 82 167q42 20 110 20q64 0 160 -18l-19 -104q-68 11 -95 11q-13 0 -23 -2q-23 -1 -36.5 -8t-21 -23t-7.5 -43v-23h166v-112h-166v-388h-150v388h-88v112h88z" />
<glyph unicode="g" horiz-adv-x="611" d="M579 422h-84q28 -21 28 -65q0 -54 -21 -86.5t-73.5 -50t-144.5 -17.5q-30 0 -54 3q-26 -22 -26 -41q0 -18 27 -22q38 3 82 3q104 0 162 -16.5t81 -49t23 -89.5q0 -75 -65.5 -115.5t-214.5 -40.5q-153 0 -216 31.5t-63 103.5q0 40 25 66t70 30q-48 13 -48 57q0 25 18.5 52 t51.5 46q-50 17 -70.5 50t-20.5 85q0 82 52.5 118t185.5 36q63 0 112 -8h183v-80zM285 415q-55 0 -77.5 -14.5t-22.5 -45.5q0 -30 22.5 -44.5t77.5 -14.5t77 14.5t22 44.5q0 21 -9.5 34t-31.5 19.5t-58 6.5zM298 46q-73 0 -100 -12.5t-27 -42.5t27 -43t101 -13t101 13t27 43 q0 20 -10 31t-38.5 17.5t-80.5 6.5z" />
<glyph unicode="h" horiz-adv-x="604" d="M208 750v-280q83 38 161 38q52 0 92.5 -16t67.5 -55t27 -97v-340h-150v297q0 30 -7.5 51.5t-26.5 34.5t-47 13q-46 0 -117 -33v-363h-150v750h150z" />
<glyph unicode="i" horiz-adv-x="264" d="M211 567h-153v122h153v-122zM209 0h-149v500h149v-500z" />
<glyph unicode="j" horiz-adv-x="262" d="M209 567h-153v122h153v-122zM207 500v-480q0 -124 -67 -174q-27 -21 -63 -30t-90 -16l-18 106q39 9 59 25q30 23 30 89v480h149z" />
<glyph unicode="k" horiz-adv-x="586" d="M206 314l181 186h170l-200 -198l211 -302h-157l-150 212l-55 -54v-158h-149v750h149v-436z" />
<glyph unicode="l" horiz-adv-x="339" d="M208 750v-591q0 -29 9.5 -41.5t27.5 -14.5h12q18 0 45 7l18 -103q-76 -17 -116 -17q-76 1 -111 39.5t-35 121.5v599h150z" />
<glyph unicode="m" horiz-adv-x="879" d="M168 501l13 -38q94 47 174 47q85 0 127 -54q106 54 186 54q73 0 117.5 -42t44.5 -130v-338h-149v312q0 85 -60 85q-33 0 -106 -32q3 -14 3 -30v-335h-150v312q0 85 -60 85q-32 0 -105 -31v-366h-150v501h115z" />
<glyph unicode="n" horiz-adv-x="599" d="M168 500l13 -40q100 48 186 48q53 0 93.5 -17.5t65.5 -57t25 -96.5v-337h-150v297q0 99 -79 99q-46 0 -119 -33v-363h-150v500h115z" />
<glyph unicode="o" horiz-adv-x="587" d="M293 508q42 0 76 -5t59.5 -15t45 -23.5t33 -32t22 -38t13.5 -44t7 -48t2 -52.5q0 -47 -5 -82t-21 -70t-43.5 -57t-75 -35.5t-113 -13.5t-113 13.5t-75 35.5t-43.5 57t-21 70t-5 82t5 82t21 70t43.5 57t75 35.5t112.5 13.5zM293.5 409q-68.5 0 -88.5 -32t-20 -127 q0 -49 3.5 -76.5t15 -47.5t32.5 -27.5t57 -7.5q69 0 88.5 32t19.5 127t-19.5 127t-88 32z" />
<glyph unicode="p" horiz-adv-x="575" d="M170 500l7 -32q99 42 172 42q89 0 139.5 -64t50.5 -194q0 -133 -50.5 -197.5t-142.5 -64.5q-61 0 -138 26v-196h-150v680h112zM208 376v-254q65 -17 106 -17q40 0 57.5 33.5t17.5 113.5q0 55 -8.5 88t-23.5 46t-37 13q-39 0 -112 -23z" />
<glyph unicode="q" d="M367 -180v197q-76 -27 -138 -27q-93 0 -143 64.5t-50 197.5q0 62 10 107t34.5 80.5t69 53t109.5 17.5q109 0 257 -53v-637h-149zM367 122v260q-66 18 -106 18t-58 -34t-18 -114t18 -113.5t58 -33.5t106 17z" />
<glyph unicode="r" horiz-adv-x="401" d="M156 501l19 -54q51 63 134 63q28 0 79 -9l-20 -110q-28 8 -58 8q-71 0 -107 -49v-349h-150v500h103z" />
<glyph unicode="s" horiz-adv-x="528" d="M36 10l16 110q109 -21 189 -21q106 0 110 47q3 28 -19 38.5t-88 20.5q-7 2 -21 4q-26 4 -37.5 6t-32 6t-29.5 7t-23.5 8t-21 10.5t-16 13.5t-13 17t-8 21t-6 26.5t-1.5 32.5q0 44 17 75t50 47t72 22.5t90 6.5q23 0 47.5 -1t48 -3.5t42 -4.5t40.5 -4.5t32 -3.5l-17 -109 q-124 18 -180 18q-92 0 -92 -41q0 -21 20 -28.5t96 -17.5q116 -15 157.5 -49.5t41.5 -115.5q0 -45 -22.5 -77.5t-62 -49t-82 -23.5t-93.5 -7q-28 0 -58 2t-54.5 4.5t-44 5t-33.5 5z" />
<glyph unicode="t" horiz-adv-x="489" d="M263 500h183v-112h-183v-227q0 -32 15.5 -45.5t45.5 -13.5q28 0 114 21l19 -103q-114 -30 -182 -30q-161 0 -161 171v227h-103v112h103v142h149v-142z" />
<glyph unicode="u" horiz-adv-x="590" d="M198 500v-297q0 -99 80 -99q45 0 115 31v365h149v-500h-114l-14 38q-96 -46 -181 -46q-83 0 -134 43t-51 128v337h150z" />
<glyph unicode="v" horiz-adv-x="592" d="M386 0h-180l-192 500h152l130 -377l130 377h152z" />
<glyph unicode="w" horiz-adv-x="895" d="M731 0h-190l-93 325l-93 -325h-191l-150 500h151l96 -373l105 373h163l105 -373l96 373h152z" />
<glyph unicode="x" horiz-adv-x="607" d="M393 254l201 -254h-162l-133 165l-124 -165h-161l202 262l-189 238h162l119 -147l110 148h161z" />
<glyph unicode="y" horiz-adv-x="575" d="M286 145l123 355h152l-205 -538q-35 -94 -114 -128q-41 -19 -142 -35l-19 104q73 13 104 29q35 17 50 54l6 14h-39l-188 500h152z" />
<glyph unicode="z" horiz-adv-x="528" d="M487 426l-254 -314h264v-112h-467v74l255 314h-242v112h444v-74z" />
<glyph unicode="{" horiz-adv-x="434" d="M399 730v-114q-34 0 -52 -1t-37 -5t-27 -12t-13.5 -22.5t-5.5 -37.5v-121q0 -84 -54 -112q54 -28 54 -113v-121q0 -23 5 -37t13.5 -22.5t27.5 -12.5t37 -5t52 -1v-113h-73q-101 1 -152 44t-51 146v122q0 30 -11.5 40.5t-37.5 10.5h-39v124h39q26 0 37.5 10.5t11.5 39.5 v122q0 104 51 147t153 44h72z" />
<glyph unicode="|" horiz-adv-x="222" d="M188 -120h-153v870h153v-870z" />
<glyph unicode="}" horiz-adv-x="434" d="M35 730h73q49 0 85.5 -9.5t63.5 -31t41 -59t14 -90.5v-122q0 -30 11.5 -40.5t36.5 -10.5h39v-123h-39q-17 -1 -26.5 -4.5t-15.5 -15t-6 -31.5v-122q0 -43 -9.5 -75.5t-26 -54t-42 -35.5t-56.5 -20t-70 -6h-73v113q34 0 52 1t37 5t27.5 12.5t13.5 23t5 36.5v121 q0 85 54 113q-54 28 -54 112v121q0 23 -5 37.5t-13 23t-27.5 12t-37 4.5t-52.5 1v114z" />
<glyph unicode="~" horiz-adv-x="560" d="M92 266l-57 84q94 80 153 80q30 0 64.5 -14t63.5 -28t47 -14q38 0 102 54l60 -88q-26 -24 -70.5 -49t-75.5 -25q-24 0 -84 25.5t-97 25.5q-21 0 -48 -13.5t-39.5 -22.5t-18.5 -15z" />
<glyph unicode="&#xa1;" horiz-adv-x="228" d="M192 362h-156v157h156v-157zM192 -180h-157l16 490h126z" />
<glyph unicode="&#xa2;" horiz-adv-x="501" d="M333 574v-68q57 -4 133 -19l-19 -107q-115 21 -151 21q-61 0 -86 -33.5t-25 -117t25 -117.5t85 -34q36 0 152 21l19 -107q-79 -15 -133 -19v-68h-122v69q-90 13 -133 73t-43 182q0 82 20 136t58 82t98 37v69h122z" />
<glyph unicode="&#xa3;" horiz-adv-x="583" d="M101 428l-7 51q-3 17 -3 33q0 94 70 146t174 52q58 0 189 -25l-22 -122q-125 27 -168 27q-90 0 -90 -76q0 -9 1 -19l9 -67h239v-121h-221l6 -44q4 -30 4 -47q0 -58 -45 -95h311v-121h-513v121q56 27 75.5 47.5t19.5 51.5q0 15 -4 43l-5 44h-86v121h66z" />
<glyph unicode="&#xa4;" horiz-adv-x="746" />
<glyph unicode="&#xa5;" horiz-adv-x="727" d="M517 381h101v-94h-151l-27 -48v-25h178v-94h-178v-120h-153v120h-178v94h178v25l-27 48h-150v94h100l-175 319h168l161 -324l160 324h168z" />
<glyph unicode="&#xa6;" horiz-adv-x="222" d="M188 364h-153v386h153v-386zM188 -120h-153v386h153v-386z" />
<glyph unicode="&#xa7;" horiz-adv-x="507" d="M35 -101l15 111q103 -21 174 -21q53 0 89.5 15.5t39.5 48.5q4 37 -23.5 53t-97.5 28q-32 6 -50.5 10t-41 10t-34.5 11.5t-25.5 14.5t-20 19.5t-12.5 25t-8 32.5t-2 42q0 87 57 124q-31 16 -44 44.5t-13 78.5q0 48 15 81.5t45 51t66 24.5t84 7q53 0 193 -18l-14 -110 q-111 18 -163 18q-107 0 -107 -52q0 -26 24.5 -36t102.5 -22q109 -16 148.5 -54t39.5 -132q0 -70 -40 -113q40 -38 40 -134q0 -177 -247 -177q-81 0 -190 19zM236 367l-16 2q-23 -1 -37.5 -7t-22.5 -18t-8 -31q0 -24 16.5 -33.5t68.5 -19.5q66 -12 90 -23q20 21 20 54 q0 18 -5 30t-12 19.5t-23.5 12.5t-30 7.5t-40.5 6.5z" />
<glyph unicode="&#xa8;" horiz-adv-x="438" d="M173 577h-138v126h138v-126zM403 577h-138v126h138v-126z" />
<glyph unicode="&#xa9;" horiz-adv-x="789" d="M394.5 710q73.5 0 140 -28.5t115 -76.5t77 -115t28.5 -140q0 -98 -48.5 -181t-131.5 -131t-180.5 -48t-180.5 48t-131 131t-48 181q0 73 28.5 140t76.5 115t114.5 76.5t140 28.5zM395 612q-107 0 -184 -77t-77 -184t77 -183.5t184 -76.5q52 0 100.5 20.5t83.5 55.5 t55.5 83.5t20.5 100.5q0 107 -76.5 184t-183.5 77zM492 254l14 -80q-75 -17 -123 -17q-157 1 -157 194t158 193q47 0 122 -17l-14 -80q-82 16 -101 16q-24 0 -38 -9t-21.5 -33.5t-7.5 -69.5q0 -66 15.5 -89.5t51.5 -23.5q18 0 101 16z" />
<glyph unicode="&#xaa;" horiz-adv-x="365" d="M69 618l-11 71q81 18 134 18q142 0 142 -112v-211h-78l-4 20q-62 -25 -111 -25q-32 0 -56 11t-39 35.5t-15 61.5q0 100 152 100q22 0 48 -2v9q0 37 -58 37q-29 0 -104 -13zM231 473v54q-25 3 -44 3q-35 0 -46.5 -8.5t-11.5 -29.5q0 -37 36 -37q27 0 66 18z" />
<glyph unicode="&#xab;" horiz-adv-x="612" d="M186 252l136 -191h-150l-137 191l137 191h150zM441 252l136 -191h-150l-137 191l137 191h150z" />
<glyph unicode="&#xac;" horiz-adv-x="746" />
<glyph unicode="&#xad;" horiz-adv-x="438" d="M403 231h-368v121h368v-121z" />
<glyph unicode="&#xae;" horiz-adv-x="789" d="M395 710q73 0 139.5 -28.5t115 -76.5t77 -115t28.5 -140q0 -98 -48.5 -181t-131.5 -131t-180.5 -48t-180.5 48t-131 131t-48 181t48 181t131 131t181 48zM395 612q-107 0 -184 -77t-77 -184t77 -183.5t184 -76.5t183.5 76.5t76.5 183.5t-76.5 184t-183.5 77zM259 531h158 q47 0 77 -30.5t30 -81.5q0 -69 -49 -95l74 -144h-96l-59 126h-47v-126h-88v351zM348 458v-79h58q30 0 30 39.5t-30 39.5h-58z" />
<glyph unicode="&#xaf;" horiz-adv-x="450" d="M415 584h-380v106h380v-106z" />
<glyph unicode="&#xb0;" horiz-adv-x="439" d="M220 838q50 0 92.5 -25t67.5 -67.5t25 -92.5q0 -77 -54.5 -131t-131 -54t-130.5 54t-54 130.5t54 131t131 54.5zM220 729q-31 0 -53 -22t-22 -54t22 -54t53 -22t53 22t22 54t-22 54t-53 22z" />
<glyph unicode="&#xb1;" horiz-adv-x="557" d="M355 446h167v-120h-167v-128h-152v128h-168v120h168v128h152v-128zM522 0h-487v121h487v-121z" />
<glyph unicode="&#xb2;" horiz-adv-x="361" d="M50 590l-16 89q69 27 144 27q41 0 73.5 -11t54.5 -40t22 -72q0 -49 -27 -77.5t-97 -45.5q-13 -3 -22 -6t-15.5 -7t-10 -9t-5.5 -11t-2 -15v-22h180v-91h-297l2 105q0 119 145 149q21 5 27 10.5t6 19.5q0 33 -44 33q-37 0 -118 -26z" />
<glyph unicode="&#xb3;" horiz-adv-x="376" d="M329 626l-82 -81q18 -1 33 -6q64 -25 64 -108q0 -137 -164 -138q-55 0 -148 16l16 87q7 -1 51.5 -7t65.5 -6q35 0 48.5 10.5t13.5 37.5q0 25 -8.5 34.5t-27.5 9.5q-22 0 -71 -18l-36 63l93 89h-131v91h283v-74z" />
<glyph unicode="&#xb4;" horiz-adv-x="302" d="M149 565h-114l106 152h126z" />
<glyph unicode="&#xb6;" horiz-adv-x="638" d="M603 579h-59v-699h-112v699h-77v-699h-112v412h-17q-87 0 -139 53.5t-52 150.5q0 94 53 149t142 55h373v-121z" />
<glyph unicode="&#xb7;" horiz-adv-x="225" d="M190 224h-155v157h155v-157z" />
<glyph unicode="&#xb8;" horiz-adv-x="355" d="M217 15l-40 -59q25 6 46 5q43 0 70 -22.5t27 -67.5q0 -105 -144 -105q-76 0 -141 21l27 72q57 -14 101 -14q65 0 65 32q0 30 -53 30q-42 0 -82 -11l-20 28l50 91h94z" />
<glyph unicode="&#xb9;" horiz-adv-x="301" d="M268 298h-116v261l-62 -41l-58 80l155 102h81v-402z" />
<glyph unicode="&#xba;" horiz-adv-x="391" d="M195 707q42 0 72.5 -9t48 -23t27.5 -36.5t13.5 -44.5t3.5 -51q0 -38 -6 -64.5t-22.5 -50.5t-50.5 -36.5t-85.5 -12.5t-85.5 12.5t-50.5 36.5t-22.5 50.5t-6 64t6 64t22.5 51t50.5 37t85 12.5zM195.5 637q-40.5 0 -51.5 -18t-11 -76t11 -76.5t51.5 -18.5t51.5 18.5 t11 76.5t-11 76t-51.5 18z" />
<glyph unicode="&#xbb;" horiz-adv-x="612" d="M322 252l-137 -191h-150l136 191l-136 191h150zM577 252l-137 -191h-150l136 191l-136 191h150z" />
<glyph unicode="&#xbc;" horiz-adv-x="958" d="M296 -17h-143l492 734h143zM271 298h-117v261l-62 -41l-57 80l154 102h82v-402zM877 181h46v-90h-46v-91h-112v91h-211v67l179 244h144v-221zM672 181h93v129z" />
<glyph unicode="&#xbd;" horiz-adv-x="967" d="M293 -17h-143l492 734h143zM271 298h-117v261l-62 -41l-57 80l154 102h82v-402zM654 291l-17 89q70 27 144 27q66 0 108.5 -29.5t42.5 -93.5q0 -49 -27 -77.5t-97 -45.5q-33 -8 -44 -17.5t-11 -31.5v-21h179v-91h-296l1 105q0 119 146 149q21 5 27 10.5t6 19.5 q0 33 -45 33q-36 0 -117 -26z" />
<glyph unicode="&#xbe;" horiz-adv-x="973" d="M311 -17h-143l492 734h143zM331 626l-81 -81q19 -2 35 -8q61 -26 61 -106q0 -137 -163 -138q-55 0 -148 16l15 87q8 -1 52.5 -7t64.5 -6q35 0 49 10.5t14 37.5q0 25 -9 34.5t-28 9.5q-21 0 -71 -18l-35 63l92 89h-130v91h282v-74zM891 181h47v-90h-47v-91h-111v91h-211 v67l179 244h143v-221zM686 181h94v129z" />
<glyph unicode="&#xbf;" horiz-adv-x="526" d="M392 377h-155v154h155v-154zM391 326v-61q0 -29 -10.5 -54t-23 -41t-35.5 -32.5t-36.5 -24t-37.5 -19.5q-4 -2 -7 -3q-18 -9 -28 -15.5t-17.5 -19t-7.5 -29.5q0 -44 22.5 -62.5t68.5 -18.5q54 0 191 36l21 -121q-109 -35 -213 -35q-53 0 -95 10.5t-76.5 33t-53 62.5 t-18.5 95q0 24 5.5 45.5t17.5 38t23.5 29t30.5 24.5t30.5 18.5t31.5 16.5q2 1 7 3q15 8 22.5 12.5t17 12t13.5 17t4 21.5v61h153z" />
<glyph unicode="&#xc0;" horiz-adv-x="712" d="M461 765h-114l-119 152h126zM691 0h-164l-45 138h-252l-45 -138h-164l252 700h167zM265 259h182l-91 276z" />
<glyph unicode="&#xc1;" horiz-adv-x="712" d="M341 765h-114l106 152h126zM691 0h-164l-45 138h-252l-45 -138h-164l252 700h167zM265 259h182l-91 276z" />
<glyph unicode="&#xc2;" horiz-adv-x="712" d="M573 827l-65 -78l-152 95l-152 -95l-65 78l217 137zM691 0h-164l-45 138h-252l-45 -138h-164l252 700h167zM265 259h182l-91 276z" />
<glyph unicode="&#xc3;" horiz-adv-x="712" d="M205 776l-49 72q78 66 127 66q32 0 79.5 -23t64.5 -23q31 0 84 45l51 -76q-13 -12 -33.5 -25.5t-45.5 -24.5t-43 -11q-20 0 -69 20.5t-79 20.5q-17 0 -39.5 -11t-32.5 -18.5t-15 -11.5zM691 0h-164l-45 138h-252l-45 -138h-164l252 700h167zM265 259h182l-91 276z" />
<glyph unicode="&#xc4;" horiz-adv-x="712" d="M310 777h-138v126h138v-126zM540 777h-139v126h139v-126zM691 0h-164l-45 138h-252l-45 -138h-164l252 700h167zM265 259h182l-91 276z" />
<glyph unicode="&#xc5;" horiz-adv-x="712" d="M355 969q49 0 83.5 -34t34.5 -83t-34.5 -83.5t-83.5 -34.5t-83 34.5t-34 83.5t34 83t83 34zM355 895q-11 0 -21 -5.5t-15.5 -16t-5.5 -21.5q0 -18 12.5 -31t30 -13t30 13t12.5 31t-12.5 30.5t-30.5 12.5zM691 0h-164l-45 138h-252l-45 -138h-164l252 700h167zM265 259 h182l-91 276z" />
<glyph unicode="&#xc6;" horiz-adv-x="869" d="M830 579h-321v-151h301v-121h-301v-186h326v-121h-479v138h-126l-45 -138h-164l252 700h557v-121zM265 259h91v276z" />
<glyph unicode="&#xc7;" horiz-adv-x="583" d="M196 -67l39 71q-61 15 -101.5 53.5t-64 112t-23.5 181.5q0 82 14 144t38 102.5t61 65.5t79 35.5t96 10.5q84 0 215 -29l-21 -119q-137 27 -180 27q-52 0 -83.5 -20t-48.5 -73t-17 -144.5t17 -144.5t48.5 -73t83.5 -20q43 0 180 27l21 -119q-84 -18 -160 -26 q-49 -2 -71 -1l-18 -29q28 7 46 6q43 0 70.5 -22.5t27.5 -67.5q0 -106 -150 -106q-66 0 -136 21l27 72q61 -13 107 -13q59 0 59 32q0 31 -52 29q-34 1 -83 -10z" />
<glyph unicode="&#xc8;" horiz-adv-x="576" d="M402 765h-114l-118 152h126zM537 579h-321v-151h301v-121h-301v-186h326v-121h-479v700h474v-121z" />
<glyph unicode="&#xc9;" horiz-adv-x="576" d="M282 765h-113l106 152h126zM537 579h-321v-151h301v-121h-301v-186h326v-121h-479v700h474v-121z" />
<glyph unicode="&#xca;" horiz-adv-x="576" d="M515 827l-66 -78l-151 95l-152 -95l-66 78l218 137zM537 579h-321v-151h301v-121h-301v-186h326v-121h-479v700h474v-121z" />
<glyph unicode="&#xcb;" horiz-adv-x="576" d="M251 777h-138v126h138v-126zM481 777h-138v126h138v-126zM537 579h-321v-151h301v-121h-301v-186h326v-121h-479v700h474v-121z" />
<glyph unicode="&#xcc;" horiz-adv-x="274" d="M246 765h-114l-118 152h126zM215 0h-153v700h153v-700z" />
<glyph unicode="&#xcd;" horiz-adv-x="274" d="M126 765h-114l107 152h126zM215 0h-153v700h153v-700z" />
<glyph unicode="&#xce;" horiz-adv-x="274" d="M359 827l-66 -78l-152 95l-152 -95l-65 78l217 137zM215 0h-153v700h153v-700z" />
<glyph unicode="&#xcf;" horiz-adv-x="274" d="M95 777h-138v126h138v-126zM325 777h-139v126h139v-126zM215 0h-153v700h153v-700z" />
<glyph unicode="&#xd0;" horiz-adv-x="732" d="M122 700h257q77 0 132.5 -17.5t89 -47t53 -76t26.5 -95.5t7 -114.5t-7 -114.5t-26.5 -95.5t-53 -75.5t-89 -46.5t-132.5 -17.5h-257v290h-97v120h97v290zM275 579v-169h118v-120h-118v-169h104q41 0 67.5 7t44 22t27 43.5t13 64.5t3.5 91.5t-3.5 91.5t-13 64.5t-27 43.5 t-44 22.5t-67.5 7.5h-104z" />
<glyph unicode="&#xd1;" horiz-adv-x="705" d="M214 776l-50 72q79 66 127 66q32 0 80 -23t64 -23q32 0 84 45l52 -76q-22 -20 -59.5 -40.5t-63.5 -20.5q-19 0 -68.5 20.5t-79.5 20.5q-17 0 -39 -11t-32 -18.5t-15 -11.5zM647 0h-155l-281 437v-437h-153v700h155l281 -438v438h153v-700z" />
<glyph unicode="&#xd2;" horiz-adv-x="689" d="M450 765h-114l-118 152h126zM345 707q55 0 99.5 -9.5t75.5 -26t53.5 -42.5t35.5 -54.5t21 -67.5t10.5 -75t2.5 -82.5t-2.5 -82.5t-10.5 -75t-21 -67t-35.5 -54.5t-53.5 -43t-75.5 -26t-100 -9.5t-99.5 9.5t-75 26t-54 43t-36 54.5t-21 67t-10.5 75t-2.5 82q0 41 2 73 t7.5 67t15.5 61.5t25 52.5t38 44t52.5 32t69.5 21t89 7zM345 587q-33 0 -56 -4.5t-39.5 -17t-26.5 -29t-15.5 -45.5t-7 -61t-1.5 -81q0 -58 2.5 -94t11 -66.5t25 -45.5t42 -23t65.5 -8q28 0 48.5 4t36.5 11.5t26.5 21.5t17.5 31t10.5 44t5 55.5t1.5 69.5q0 59 -3 95 t-11.5 66.5t-25 45.5t-42 23t-64.5 8z" />
<glyph unicode="&#xd3;" horiz-adv-x="689" d="M331 765h-114l106 152h126zM345 707q55 0 99.5 -9.5t75.5 -26t53.5 -42.5t35.5 -54.5t21 -67.5t10.5 -75t2.5 -82.5t-2.5 -82.5t-10.5 -75t-21 -67t-35.5 -54.5t-53.5 -43t-75.5 -26t-100 -9.5t-99.5 9.5t-75 26t-54 43t-36 54.5t-21 67t-10.5 75t-2.5 82q0 41 2 73 t7.5 67t15.5 61.5t25 52.5t38 44t52.5 32t69.5 21t89 7zM345 587q-33 0 -56 -4.5t-39.5 -17t-26.5 -29t-15.5 -45.5t-7 -61t-1.5 -81q0 -58 2.5 -94t11 -66.5t25 -45.5t42 -23t65.5 -8q28 0 48.5 4t36.5 11.5t26.5 21.5t17.5 31t10.5 44t5 55.5t1.5 69.5q0 59 -3 95 t-11.5 66.5t-25 45.5t-42 23t-64.5 8z" />
<glyph unicode="&#xd4;" horiz-adv-x="689" d="M563 827l-66 -78l-151 95l-152 -95l-66 78l218 137zM345 707q55 0 99.5 -9.5t75.5 -26t53.5 -42.5t35.5 -54.5t21 -67.5t10.5 -75t2.5 -83q0 -40 -2 -72t-7 -67t-15.5 -61.5t-25.5 -52t-37.5 -44t-52.5 -32.5t-70 -21t-88 -7q-56 0 -100 9.5t-75 26t-54 43t-36 54.5 t-21 67t-10.5 75t-2.5 82q0 41 2 73t7.5 67t15.5 61.5t25 52.5t38 44t52.5 32t69.5 21t89 7zM345 587q-33 0 -56 -4.5t-39.5 -17t-26.5 -29t-15.5 -45.5t-7 -61t-1.5 -81q0 -58 2.5 -94t11 -66.5t25 -45.5t42 -23t65.5 -8q28 0 48.5 4t36.5 11.5t26.5 21.5t17.5 31t10.5 44 t5 55.5t1.5 69.5q0 59 -3 95t-11.5 66.5t-25 45.5t-42 23t-64.5 8z" />
<glyph unicode="&#xd5;" horiz-adv-x="689" d="M195 776l-49 72q78 66 127 66q32 0 79.5 -23t63.5 -23q32 0 84 45l52 -76q-14 -12 -34.5 -25.5t-45.5 -24.5t-43 -11q-19 0 -68.5 20.5t-79.5 20.5q-17 0 -39 -11t-32 -18.5t-15 -11.5zM345 707q55 0 99.5 -9.5t75.5 -26t53.5 -42.5t35.5 -54.5t21 -67.5t10.5 -75 t2.5 -83q0 -40 -2 -72t-7 -67t-15.5 -61.5t-25.5 -52t-37.5 -44t-52.5 -32.5t-70 -21t-88 -7q-56 0 -100 9.5t-75 26t-54 43t-36 54.5t-21 67t-10.5 75t-2.5 82q0 41 2 73t7.5 67t15.5 61.5t25 52.5t38 44t52.5 32t69.5 21t89 7zM345 587q-33 0 -56 -4.5t-39.5 -17 t-26.5 -29t-15.5 -45.5t-7 -61t-1.5 -81q0 -58 2.5 -94t11 -66.5t25 -45.5t42 -23t65.5 -8q28 0 48.5 4t36.5 11.5t26.5 21.5t17.5 31t10.5 44t5 55.5t1.5 69.5q0 59 -3 95t-11.5 66.5t-25 45.5t-42 23t-64.5 8z" />
<glyph unicode="&#xd6;" horiz-adv-x="689" d="M300 777h-139v126h139v-126zM529 777h-138v126h138v-126zM345 707q55 0 99.5 -9.5t75.5 -26t53.5 -42.5t35.5 -54.5t21 -67.5t10.5 -75t2.5 -83q0 -40 -2 -72t-7 -67t-15.5 -61.5t-25.5 -52t-37.5 -44t-52.5 -32.5t-70 -21t-88 -7q-56 0 -100 9.5t-75 26t-54 43t-36 54.5 t-21 67t-10.5 75t-2.5 82q0 41 2 73t7.5 67t15.5 61.5t25 52.5t38 44t52.5 32t69.5 21t89 7zM345 587q-33 0 -56 -4.5t-39.5 -17t-26.5 -29t-15.5 -45.5t-7 -61t-1.5 -81q0 -58 2.5 -94t11 -66.5t25 -45.5t42 -23t65.5 -8q28 0 48.5 4t36.5 11.5t26.5 21.5t17.5 31t10.5 44 t5 55.5t1.5 69.5q0 59 -3 95t-11.5 66.5t-25 45.5t-42 23t-64.5 8z" />
<glyph unicode="&#xd7;" horiz-adv-x="503" d="M253 377l128 128l85 -85l-128 -128l130 -130l-88 -88l-130 130l-128 -128l-86 85l129 128l-130 130l88 88z" />
<glyph unicode="&#xd8;" horiz-adv-x="689" d="M549 750l-27 -80q38 -21 63 -54t37 -76.5t16.5 -87.5t4.5 -103q0 -46 -2.5 -82t-10.5 -75t-21 -67t-35.5 -54.5t-53.5 -43t-75.5 -26t-99.5 -9.5q-25 0 -48 2l-14 -44h-143l27 80q-30 17 -52.5 42.5t-35.5 54t-20.5 66.5t-10 74t-2.5 82q0 41 2 73t7.5 67t15.5 61.5 t25 52.5t38 44t52.5 32t69.5 21t89 7q24 0 46 -1l15 44h143zM352 587h-7q-33 0 -56 -4.5t-39.5 -17t-26.5 -29t-15.5 -45.5t-7 -61t-1.5 -81q0 -125 17 -171zM337 112h8q28 0 48.5 4t36.5 11.5t26.5 21.5t17.5 31t10.5 44t5 55.5t1.5 69.5q0 127 -18 172z" />
<glyph unicode="&#xd9;" horiz-adv-x="680" d="M446 765h-114l-119 152h126zM622 700v-384q0 -48 -2 -81t-9 -69.5t-19 -61t-32.5 -47.5t-50 -36t-71 -21t-95.5 -8t-96 8t-71.5 21t-50 36t-32.5 47.5t-19 61t-9 69.5t-2 81v384h153v-384q0 -38 0.5 -61.5t2.5 -47t5.5 -36t10.5 -25.5t15 -18t22.5 -9.5t30.5 -5.5 t39.5 -1t39.5 1t30.5 5.5t22.5 9.5t15.5 18t10.5 25.5t5 36t2.5 47t0.5 61.5v384h153z" />
<glyph unicode="&#xda;" horiz-adv-x="680" d="M326 765h-114l106 152h126zM622 700v-384q0 -48 -2 -81t-9 -69.5t-19 -61t-32.5 -47.5t-50 -36t-71 -21t-95.5 -8t-96 8t-71.5 21t-50 36t-32.5 47.5t-19 61t-9 69.5t-2 81v384h153v-384q0 -38 0.5 -61.5t2.5 -47t5.5 -36t10.5 -25.5t15 -18t22.5 -9.5t30.5 -5.5t39.5 -1 t39.5 1t30.5 5.5t22.5 9.5t15.5 18t10.5 25.5t5 36t2.5 47t0.5 61.5v384h153z" />
<glyph unicode="&#xdb;" horiz-adv-x="680" d="M558 827l-65 -78l-152 95l-152 -95l-65 78l217 137zM622 700v-384q0 -48 -2 -81t-9 -69.5t-19 -61t-32.5 -47.5t-50 -36t-71 -21t-95.5 -8t-96 8t-71.5 21t-50 36t-32.5 47.5t-19 61t-9 69.5t-2 81v384h153v-384q0 -38 0.5 -61.5t2.5 -47t5.5 -36t10.5 -25.5t15 -18 t22.5 -9.5t30.5 -5.5t39.5 -1t39.5 1t30.5 5.5t22.5 9.5t15.5 18t10.5 25.5t5 36t2.5 47t0.5 61.5v384h153z" />
<glyph unicode="&#xdc;" horiz-adv-x="680" d="M295 777h-138v126h138v-126zM525 777h-139v126h139v-126zM622 700v-384q0 -48 -2 -81t-9 -69.5t-19 -61t-32.5 -47.5t-50 -36t-71 -21t-95.5 -8t-96 8t-71.5 21t-50 36t-32.5 47.5t-19 61t-9 69.5t-2 81v384h153v-384q0 -38 0.5 -61.5t2.5 -47t5.5 -36t10.5 -25.5t15 -18 t22.5 -9.5t30.5 -5.5t39.5 -1t39.5 1t30.5 5.5t22.5 9.5t15.5 18t10.5 25.5t5 36t2.5 47t0.5 61.5v384h153z" />
<glyph unicode="&#xdd;" horiz-adv-x="699" d="M335 765h-114l106 152h126zM426 239v-239h-153v239l-252 461h168l161 -324l160 324h168z" />
<glyph unicode="&#xde;" horiz-adv-x="614" d="M216 582h155q98 0 156.5 -60.5t58.5 -165.5q0 -109 -58.5 -168t-156.5 -59h-155v-129h-153v750h153v-168zM216 461v-211h130q41 0 64 26t23 80q0 52 -23 78.5t-64 26.5h-130z" />
<glyph unicode="&#xdf;" horiz-adv-x="659" d="M55 0v521q0 89 70 138.5t202 49.5q90 0 152 -23.5t91 -65t29 -99.5q0 -99 -90 -134q111 -33 108 -146v-62q0 -52 -23 -89.5t-64 -58.5t-89.5 -30.5t-105.5 -9.5q-38 0 -65 4l20 117q11 -1 37 -1q79 0 108 13.5t29 53.5v63q0 49 -30.5 64.5t-125.5 15.5v121q84 0 111 16.5 t27 62.5q0 40 -27.5 53.5t-91.5 13.5t-91.5 -13.5t-27.5 -53.5v-521h-153z" />
<glyph unicode="&#xe0;" horiz-adv-x="553" d="M377 565h-114l-119 152h126zM91 379l-16 102q126 27 208 27q221 0 221 -175v-333h-112l-7 35q-102 -43 -184 -43q-78 0 -124 41t-46 126q0 81 54.5 116.5t152.5 39.5q14 1 30 1q39 0 86 -4v21q0 65 -103 65q-47 0 -160 -19zM354 133v97q-46 5 -78 5q-61 0 -81.5 -15.5 t-20.5 -51.5q0 -66 65 -66q47 0 115 31z" />
<glyph unicode="&#xe1;" horiz-adv-x="553" d="M257 565h-114l106 152h126zM91 379l-16 102q126 27 208 27q221 0 221 -175v-333h-112l-7 35q-102 -43 -184 -43q-78 0 -124 41t-46 126q0 81 54.5 116.5t152.5 39.5q14 1 30 1q39 0 86 -4v21q0 65 -103 65q-47 0 -160 -19zM354 133v97q-46 5 -78 5q-61 0 -81.5 -15.5 t-20.5 -51.5q0 -66 65 -66q47 0 115 31z" />
<glyph unicode="&#xe2;" horiz-adv-x="553" d="M489 627l-65 -78l-152 95l-152 -95l-65 78l217 137zM91 379l-16 102q126 27 208 27q221 0 221 -175v-333h-112l-7 35q-102 -43 -184 -43q-78 0 -124 41t-46 126q0 81 54.5 116.5t152.5 39.5q14 1 30 1q39 0 86 -4v21q0 65 -103 65q-47 0 -160 -19zM354 133v97 q-46 5 -78 5q-61 0 -81.5 -15.5t-20.5 -51.5q0 -66 65 -66q47 0 115 31z" />
<glyph unicode="&#xe3;" horiz-adv-x="553" d="M121 576l-49 72q79 66 127 66q32 0 80 -23t64 -23q31 0 84 45l51 -76q-22 -20 -59 -40.5t-63 -20.5q-20 0 -69 20.5t-79 20.5q-17 0 -39.5 -11t-32.5 -18.5t-15 -11.5zM91 379l-16 102q126 27 208 27q221 0 221 -175v-333h-112l-7 35q-102 -43 -184 -43q-78 0 -124 41 t-46 126q0 81 54.5 116.5t152.5 39.5q14 1 30 1q39 0 86 -4v21q0 65 -103 65q-47 0 -160 -19zM354 133v97q-46 5 -78 5q-61 0 -81.5 -15.5t-20.5 -51.5q0 -66 65 -66q47 0 115 31z" />
<glyph unicode="&#xe4;" horiz-adv-x="553" d="M226 577h-138v126h138v-126zM456 577h-139v126h139v-126zM91 379l-16 102q126 27 208 27q221 0 221 -175v-333h-112l-7 35q-102 -43 -184 -43q-78 0 -124 41t-46 126q0 81 54.5 116.5t152.5 39.5q14 1 30 1q39 0 86 -4v21q0 65 -103 65q-47 0 -160 -19zM354 133v97 q-46 5 -78 5q-61 0 -81.5 -15.5t-20.5 -51.5q0 -66 65 -66q47 0 115 31z" />
<glyph unicode="&#xe5;" horiz-adv-x="553" d="M271 769q49 0 83.5 -34t34.5 -83t-34.5 -83.5t-83.5 -34.5t-83 34.5t-34 83.5t34 83t83 34zM271 695q-11 0 -21 -5.5t-15.5 -16t-5.5 -21.5q0 -18 12.5 -31t30 -13t30 13t12.5 31t-12.5 30.5t-30.5 12.5zM91 379l-16 102q126 27 208 27q221 0 221 -175v-333h-112l-7 35 q-102 -43 -184 -43q-78 0 -124 41t-46 126q0 81 54.5 116.5t152.5 39.5q14 1 30 1q39 0 86 -4v21q0 65 -103 65q-47 0 -160 -19zM354 133v97q-46 5 -78 5q-61 0 -81.5 -15.5t-20.5 -51.5q0 -66 65 -66q47 0 115 31z" />
<glyph unicode="&#xe6;" horiz-adv-x="942" d="M91 379l-16 102q126 27 209 27q136 0 182 -72q56 72 200 72q47 0 84.5 -7t63 -19t44 -32t29 -40t16.5 -48.5t7.5 -53.5t1.5 -58v-42h-352q0 -103 123 -103q75 0 184 31l19 -109q-123 -35 -217 -35q-110 0 -165 55v-47h-112l-7 35q-102 -43 -184 -43q-78 0 -124 41 t-46 126q0 81 54.5 116.5t152.5 39.5q14 1 30 1q39 0 86 -4v21q0 65 -103 65q-47 0 -160 -19zM558 290h204q0 69 -18 94t-78 25q-64 0 -86 -26t-22 -93zM354 133v97q-46 5 -78 5q-61 0 -81.5 -15.5t-20.5 -51.5q0 -66 65 -66q47 0 115 31z" />
<glyph unicode="&#xe7;" horiz-adv-x="505" d="M160 -71l37 69q-81 17 -121 77t-40 175q0 141 60 200.5t182 59.5q76 0 197 -23l-19 -107q-118 21 -155 21q-64 0 -90 -33.5t-26 -117.5q0 -57 11.5 -89.5t36.5 -47t68 -14.5q37 0 155 21l19 -107q-66 -12 -136 -19q-12 -1 -33.5 -2t-23.5 -1l-19 -30q29 7 47 6 q27 0 48.5 -9.5t35 -30t13.5 -51.5q0 -105 -145 -105q-70 0 -141 21l28 72q60 -13 106 -13q60 0 60 31q0 30 -51 30q-42 0 -85 -10z" />
<glyph unicode="&#xe8;" d="M389 565h-114l-118 152h126zM494 136l20 -109q-124 -35 -217 -35q-261 0 -261 258q0 39 3.5 69t13 61t28 53t46 40t70 26.5t96.5 8.5q48 0 85 -7t63 -19t44.5 -32t29 -40t16 -48.5t7.5 -53.5t2 -58v-42h-353q1 -103 123 -103q76 0 184 31zM186 290h204q0 69 -18.5 94 t-78.5 25q-63 0 -85 -26t-22 -93z" />
<glyph unicode="&#xe9;" d="M270 565h-114l106 152h126zM494 136l20 -109q-124 -35 -217 -35q-261 0 -261 258q0 39 3.5 69t13 61t28 53t46 40t70 26.5t96.5 8.5q48 0 85 -7t63 -19t44.5 -32t29 -40t16 -48.5t7.5 -53.5t2 -58v-42h-353q1 -103 123 -103q76 0 184 31zM186 290h204q0 69 -18.5 94 t-78.5 25q-63 0 -85 -26t-22 -93z" />
<glyph unicode="&#xea;" d="M502 627l-66 -78l-151 95l-152 -95l-65 78l217 137zM494 136l20 -109q-124 -35 -217 -35q-261 0 -261 258q0 39 3.5 69t13 61t28 53t46 40t70 26.5t96.5 8.5q48 0 85 -7t63 -19t44.5 -32t29 -40t16 -48.5t7.5 -53.5t2 -58v-42h-353q1 -103 123 -103q76 0 184 31zM186 290 h204q0 69 -18.5 94t-78.5 25q-43 0 -66 -12t-32 -37t-9 -70z" />
<glyph unicode="&#xeb;" d="M239 577h-139v126h139v-126zM468 577h-138v126h138v-126zM494 136l20 -109q-124 -35 -217 -35q-261 0 -261 258q0 39 3.5 69t13 61t28 53t46 40t70 26.5t96.5 8.5q48 0 85 -7t63 -19t44.5 -32t29 -40t16 -48.5t7.5 -53.5t2 -58v-42h-353q1 -103 123 -103q76 0 184 31z M186 290h204q0 69 -18.5 94t-78.5 25q-43 0 -66 -12t-32 -37t-9 -70z" />
<glyph unicode="&#xec;" horiz-adv-x="261" d="M235 565h-114l-118 152h126zM208 0h-150v500h150v-500z" />
<glyph unicode="&#xed;" horiz-adv-x="261" d="M115 565h-114l107 152h126zM208 0h-150v500h150v-500z" />
<glyph unicode="&#xee;" horiz-adv-x="261" d="M348 627l-66 -78l-151 95l-153 -95l-64 78l217 137zM208 0h-150v500h150v-500z" />
<glyph unicode="&#xef;" horiz-adv-x="261" d="M84 577h-138v126h138v-126zM314 577h-138v126h138v-126zM208 0h-150v500h150v-500z" />
<glyph unicode="&#xf0;" horiz-adv-x="617" d="M561 664l-39 -24q36 -52 36 -126v-315q0 -32 -9 -61.5t-29.5 -56.5t-50 -47t-74 -32t-98.5 -12t-98.5 12t-74 32t-50 47t-29.5 56.5t-9 61.5v76q0 96 63.5 149.5t162.5 53.5q86 0 143 -44v80q0 29 -7 51l-86 -53l-47 75l66 40q-19 6 -44 6q-31 0 -119 -16l-19 104 q72 17 140 17q97 0 164 -37l62 38zM405 199v76q0 45 -24 66.5t-84 21.5t-84 -21.5t-24 -66.5v-76q0 -45 24 -66.5t84 -21.5t84 21.5t24 66.5z" />
<glyph unicode="&#xf1;" horiz-adv-x="599" d="M153 576l-50 72q79 66 127 66q32 0 80 -23t64 -23q31 0 84 45l52 -76q-23 -20 -60 -40.5t-63 -20.5q-20 0 -69 20.5t-79 20.5q-17 0 -39.5 -11t-32 -18.5t-14.5 -11.5zM168 500l13 -40q100 48 186 48q82 0 133 -43t51 -128v-337h-150v297q0 99 -79 99q-46 0 -119 -33 v-363h-150v500h115z" />
<glyph unicode="&#xf2;" horiz-adv-x="587" d="M399 565h-114l-119 152h126zM293 508q42 0 76 -5t59.5 -15t45 -23.5t33 -32t22 -38t13.5 -44t7 -48t2 -52.5q0 -47 -5 -82t-21 -70t-43.5 -57t-75 -35.5t-113 -13.5t-113 13.5t-75 35.5t-43.5 57t-21 70t-5 82t5 82t21 70t43.5 57t75 35.5t112.5 13.5zM293.5 409 q-68.5 0 -88.5 -32t-20 -127q0 -49 3.5 -76.5t15 -47.5t32.5 -27.5t57 -7.5q69 0 88.5 32t19.5 127t-19.5 127t-88 32z" />
<glyph unicode="&#xf3;" horiz-adv-x="587" d="M279 565h-114l106 152h126zM293 508q42 0 76 -5t59.5 -15t45 -23.5t33 -32t22 -38t13.5 -44t7 -48t2 -52.5q0 -47 -5 -82t-21 -70t-43.5 -57t-75 -35.5t-113 -13.5t-113 13.5t-75 35.5t-43.5 57t-21 70t-5 82t5 82t21 70t43.5 57t75 35.5t112.5 13.5zM293.5 409 q-68.5 0 -88.5 -32t-20 -127q0 -49 3.5 -76.5t15 -47.5t32.5 -27.5t57 -7.5q69 0 88.5 32t19.5 127t-19.5 127t-88 32z" />
<glyph unicode="&#xf4;" horiz-adv-x="587" d="M511 627l-65 -78l-152 95l-152 -95l-65 78l217 137zM293 508q42 0 76 -5t59.5 -15t45 -23.5t33 -32t22 -38t13.5 -44t7 -48t2 -52.5q0 -47 -5 -82t-21 -70t-43.5 -57t-75 -35.5t-113 -13.5t-113 13.5t-75 35.5t-43.5 57t-21 70t-5 82t5 82t21 70t43.5 57t75 35.5 t112.5 13.5zM293.5 409q-68.5 0 -88.5 -32t-20 -127q0 -49 3.5 -76.5t15 -47.5t32.5 -27.5t57 -7.5q69 0 88.5 32t19.5 127t-19.5 127t-88 32z" />
<glyph unicode="&#xf5;" horiz-adv-x="587" d="M143 576l-49 72q78 66 127 66q32 0 79.5 -23t64.5 -23q31 0 84 45l51 -76q-22 -20 -59 -40.5t-63 -20.5q-20 0 -69.5 20.5t-78.5 20.5q-11 0 -24 -4t-23 -9.5t-20 -12.5t-14 -10t-6 -5zM293 508q42 0 76 -5t59.5 -15t45 -23.5t33 -32t22 -38t13.5 -44t7 -48t2 -52.5 q0 -47 -5 -82t-21 -70t-43.5 -57t-75 -35.5t-113 -13.5t-113 13.5t-75 35.5t-43.5 57t-21 70t-5 82t5 82t21 70t43.5 57t75 35.5t112.5 13.5zM293.5 409q-68.5 0 -88.5 -32t-20 -127q0 -49 3.5 -76.5t15 -47.5t32.5 -27.5t57 -7.5q69 0 88.5 32t19.5 127t-19.5 127t-88 32z " />
<glyph unicode="&#xf6;" horiz-adv-x="587" d="M248 577h-139v126h139v-126zM478 577h-139v126h139v-126zM293 508q42 0 76 -5t59.5 -15t45 -23.5t33 -32t22 -38t13.5 -44t7 -48t2 -52.5q0 -47 -5 -82t-21 -70t-43.5 -57t-75 -35.5t-113 -13.5t-113 13.5t-75 35.5t-43.5 57t-21 70t-5 82t5 82t21 70t43.5 57t75 35.5 t112.5 13.5zM293.5 409q-68.5 0 -88.5 -32t-20 -127q0 -49 3.5 -76.5t15 -47.5t32.5 -27.5t57 -7.5q69 0 88.5 32t19.5 127t-19.5 127t-88 32z" />
<glyph unicode="&#xf7;" horiz-adv-x="591" d="M375 464h-155v124h155v-124zM557 241h-522v120h522v-120zM375 14h-155v124h155v-124z" />
<glyph unicode="&#xf8;" horiz-adv-x="587" d="M445 550l-20 -61q26 -9 46.5 -23t34 -32t22.5 -38t14 -44.5t7 -48.5t2 -53q0 -47 -5 -82t-21 -70t-43.5 -57t-75 -35.5t-113.5 -13.5q-17 0 -33 1l-14 -43h-105l21 61q-39 14 -65 37.5t-38.5 56.5t-17.5 66.5t-5 78.5q0 39 3.5 69t13 61t28 53t46 40t70 26.5t96.5 8.5h34 l14 42h104zM201 130l92 279q-36 0 -57 -7.5t-32.5 -27.5t-15 -47.5t-3.5 -76.5q0 -90 16 -120zM386 370l-93 -279q69 0 88.5 32t19.5 127q0 90 -15 120z" />
<glyph unicode="&#xf9;" horiz-adv-x="590" d="M400 565h-114l-118 152h126zM198 500v-297q0 -99 80 -99q45 0 115 31v365h149v-500h-114l-14 38q-96 -46 -181 -46q-83 0 -134 43t-51 128v337h150z" />
<glyph unicode="&#xfa;" horiz-adv-x="590" d="M280 565h-114l107 152h126zM198 500v-297q0 -99 80 -99q45 0 115 31v365h149v-500h-114l-14 38q-96 -46 -181 -46q-54 0 -94.5 17.5t-65.5 57t-25 96.5v337h150z" />
<glyph unicode="&#xfb;" horiz-adv-x="590" d="M513 627l-66 -78l-152 95l-152 -95l-65 78l217 137zM198 500v-297q0 -99 80 -99q45 0 115 31v365h149v-500h-114l-14 38q-96 -46 -181 -46q-83 0 -134 43t-51 128v337h150z" />
<glyph unicode="&#xfc;" horiz-adv-x="590" d="M249 577h-138v126h138v-126zM479 577h-139v126h139v-126zM198 500v-297q0 -99 80 -99q45 0 115 31v365h149v-500h-114l-14 38q-96 -46 -181 -46q-54 0 -94.5 17.5t-65.5 57t-25 96.5v337h150z" />
<glyph unicode="&#xfd;" horiz-adv-x="575" d="M273 565h-114l107 152h126zM286 145l123 355h152l-205 -538q-35 -94 -114 -128q-41 -19 -142 -35l-19 104q73 13 104 29q35 17 50 54l6 14h-39l-188 500h152z" />
<glyph unicode="&#xfe;" horiz-adv-x="576" d="M209 750v-270q83 30 141 30q89 0 139.5 -64t50.5 -194q0 -133 -50 -197.5t-143 -64.5q-61 0 -138 26v-196h-150v930h150zM209 376v-254q66 -17 106 -17t57.5 33.5t17.5 113.5t-17.5 113.5t-51.5 33.5q-39 0 -112 -23z" />
<glyph unicode="&#xff;" horiz-adv-x="575" d="M242 577h-138v126h138v-126zM472 577h-138v126h138v-126zM286 145l123 355h152l-205 -538q-35 -94 -114 -128q-41 -19 -142 -35l-19 104q73 13 104 29q35 17 50 54l6 14h-39l-188 500h152z" />
<glyph unicode="&#x152;" horiz-adv-x="1040" d="M527 0v55q-57 -63 -182 -63q-56 0 -100 9.5t-75 26t-54 43t-36 54.5t-21 67t-10.5 75t-2.5 82q0 41 2 73t7.5 67t15.5 61.5t25 52.5t38 44t52.5 32t69.5 21t89 7q124 0 182 -63v56h474v-121h-321v-151h301v-121h-301v-186h326v-121h-479zM345 587q-33 0 -56 -4.5 t-39.5 -17t-26.5 -29t-15.5 -45.5t-7 -61t-1.5 -81q0 -58 2.5 -94t11 -66.5t25 -45.5t42 -23t65.5 -8q28 0 48.5 4t36.5 11.5t26.5 21.5t17.5 31t10.5 44t5 55.5t1.5 69.5q0 59 -3 95t-11.5 66.5t-25 45.5t-42 23t-64.5 8z" />
<glyph unicode="&#x153;" horiz-adv-x="951" d="M876 136l19 -109q-123 -35 -217 -35q-129 0 -188 74q-54 -74 -197 -74q-65 0 -112.5 13.5t-75 35.5t-43.5 57t-21 70t-5 82t5 82t21 70t43.5 57t75 35.5t112.5 13.5q137 0 191 -69q54 69 191 69q47 0 84.5 -7t63 -19t44 -32t29 -40t16.5 -48.5t7.5 -53.5t1.5 -58v-42 h-352q0 -103 123 -103q75 0 184 31zM293.5 409q-68.5 0 -88.5 -32t-20 -127q0 -49 3.5 -76.5t15 -48t32.5 -27.5t57 -7q69 0 88.5 32t19.5 127t-19.5 127t-88 32zM568 290h204q0 69 -18.5 94t-78.5 25q-64 0 -85.5 -26t-21.5 -93z" />
<glyph unicode="&#x178;" horiz-adv-x="699" d="M304 777h-139v126h139v-126zM533 777h-138v126h138v-126zM426 239v-239h-153v239l-252 461h168l161 -324l160 324h168z" />
<glyph unicode="&#x2c6;" horiz-adv-x="504" d="M469 627l-65 -78l-152 95l-152 -95l-65 78l217 137z" />
<glyph unicode="&#x2dc;" horiz-adv-x="476" d="M84 576l-49 72q78 66 127 66q32 0 79.5 -23t64.5 -23q31 0 84 45l51 -76q-22 -20 -59 -40.5t-63 -20.5q-20 0 -69.5 20.5t-78.5 20.5q-17 0 -39.5 -11t-32.5 -18.5t-15 -11.5z" />
<glyph unicode="&#x2000;" horiz-adv-x="484" />
<glyph unicode="&#x2001;" horiz-adv-x="969" />
<glyph unicode="&#x2002;" horiz-adv-x="484" />
<glyph unicode="&#x2003;" horiz-adv-x="969" />
<glyph unicode="&#x2004;" horiz-adv-x="323" />
<glyph unicode="&#x2005;" horiz-adv-x="242" />
<glyph unicode="&#x2006;" horiz-adv-x="161" />
<glyph unicode="&#x2007;" horiz-adv-x="161" />
<glyph unicode="&#x2008;" horiz-adv-x="121" />
<glyph unicode="&#x2009;" horiz-adv-x="193" />
<glyph unicode="&#x200a;" horiz-adv-x="53" />
<glyph unicode="&#x2010;" horiz-adv-x="438" d="M403 231h-368v121h368v-121z" />
<glyph unicode="&#x2011;" horiz-adv-x="438" d="M403 231h-368v121h368v-121z" />
<glyph unicode="&#x2012;" horiz-adv-x="438" d="M403 231h-368v121h368v-121z" />
<glyph unicode="&#x2013;" horiz-adv-x="516" d="M481 231h-446v121h446v-121z" />
<glyph unicode="&#x2014;" horiz-adv-x="600" d="M565 231h-530v121h530v-121z" />
<glyph unicode="&#x2018;" horiz-adv-x="270" d="M184 539h-149l68 247h132z" />
<glyph unicode="&#x2019;" horiz-adv-x="270" d="M168 539h-133l52 247h148z" />
<glyph unicode="&#x201a;" horiz-adv-x="270" d="M168 -99h-133l52 247h148z" />
<glyph unicode="&#x201c;" horiz-adv-x="498" d="M184 539h-149l68 247h132zM411 539h-148l68 247h132z" />
<glyph unicode="&#x201d;" horiz-adv-x="498" d="M168 539h-133l52 247h148zM396 539h-133l52 247h148z" />
<glyph unicode="&#x201e;" horiz-adv-x="498" d="M168 -99h-133l52 247h148zM396 -99h-133l52 247h148z" />
<glyph unicode="&#x2022;" horiz-adv-x="276" d="M125 385h26q44 0 67 -23.5t23 -67.5v-25q0 -45 -23 -68t-67 -23h-26q-44 0 -67 23t-23 68v25q0 44 23 67.5t67 23.5z" />
<glyph unicode="&#x2026;" horiz-adv-x="817" d="M190 0h-155v157h155v-157zM486 0h-155v157h155v-157zM782 0h-155v157h155v-157z" />
<glyph unicode="&#x202f;" horiz-adv-x="193" />
<glyph unicode="&#x2039;" horiz-adv-x="357" d="M186 252l136 -191h-150l-137 191l137 191h150z" />
<glyph unicode="&#x203a;" horiz-adv-x="357" d="M322 252l-137 -191h-150l136 191l-136 191h150z" />
<glyph unicode="&#x205f;" horiz-adv-x="242" />
<glyph unicode="&#x20ac;" horiz-adv-x="663" d="M60 477h76q23 126 93 179t184 53q84 0 215 -29l-21 -119q-137 27 -180 27q-56 0 -89 -25t-46 -86h286v-90h-300v-34v-32h275v-90h-262q13 -65 46 -91.5t90 -26.5q43 0 180 27l21 -119q-132 -29 -217 -29q-115 1 -184.5 55.5t-91.5 183.5h-100v90h90v30q0 21 1 36h-66v90z " />
<glyph unicode="&#x2122;" horiz-adv-x="864" d="M346 618h-108v-319h-103v319h-108v82h319v-82zM829 299h-103v222l-85 -172h-65l-86 172v-222h-102v401h117l103 -208l104 208h117v-401z" />
<glyph unicode="&#xfb03;" horiz-adv-x="1155" d="M103 500v23q0 127 82 167q42 20 110 20q64 0 160 -18l-19 -104q-68 11 -95 11q-13 0 -23 -2q-23 -1 -36.5 -8t-21 -23t-7.5 -43v-23h295v23q0 127 82 167q42 20 110 20q64 0 160 -18l-19 -104q-68 11 -95 11q-13 0 -23 -2q-23 -1 -36.5 -8t-21 -23t-7.5 -43v-23h402v-500 h-150v388h-252v-388h-150v388h-295v-388h-150v388h-88v112h88zM1101 567h-153v122h153v-122z" />
<glyph unicode="&#xfb04;" horiz-adv-x="1229" d="M1098 700v-541q0 -29 9.5 -41.5t28.5 -14.5h11q19 0 45 7l18 -103q-76 -17 -116 -17q-76 1 -111 39.5t-35 121.5v437h-67q-68 11 -95 11q-13 0 -23 -2q-34 -2 -49.5 -18.5t-15.5 -55.5v-23h166v-112h-166v-388h-150v388h-295v-388h-150v388h-88v112h88v23q0 127 82 167 q42 20 110 20q64 0 160 -19l-19 -103q-68 11 -95 11q-13 0 -23 -2q-34 -2 -49.5 -18.5t-15.5 -55.5v-23h295v23q0 127 82 167q42 20 110 20q47 0 111 -10h247z" />
</font>
</defs>
</svg>
