<?xml version="1.0" standalone="no"?>
<!DOCTYPE svg PUBLIC "-//W3C//DTD SVG 1.1//EN" "http://www.w3.org/Graphics/SVG/1.1/DTD/svg11.dtd" >
<svg xmlns="http://www.w3.org/2000/svg">
<metadata></metadata>
<defs>
<font id="pierpontbold" horiz-adv-x="480" >
<font-face units-per-em="1000" ascent="800" descent="-200" />
<missing-glyph horiz-adv-x="250" />
<glyph unicode="&#xfb01;" horiz-adv-x="590" d="M20 0v50l17 1q6 0 17.5 7t15.5 14q13 16 13 48v257h-63v59q34 0 50 16q11 11 15 35t15 55t38 58q73 73 221 73q77 0 121 -24t44 -64q0 -28 -17.5 -44.5t-46.5 -16.5t-48 16t-27 34.5t-25 34.5t-43 16q-37 0 -67.5 -30.5t-30.5 -82.5v-76h171q64 0 96 12h32v-328 q0 -59 46 -69l5 -1v-50h-248v50l15 1q6 1 17.5 8t15.5 13q13 16 13 48v182q0 38 -21.5 56.5t-80.5 18.5h-61v-257q0 -35 15 -51q13 -15 31 -18l38 -1v-50h-283z" />
<glyph unicode="&#xfb02;" horiz-adv-x="582" d="M20 0v50l17 1q6 0 17.5 7t15.5 14q13 16 13 48v257h-63v59h21q17 0 25.5 9.5t15.5 36.5q19 72 41 105q28 40 76.5 63.5t104.5 23.5q59 0 94 -38q30 10 66 31h47v-547q0 -59 46 -69l5 -1v-50h-247v50l14 1q7 1 18 7.5t15 13.5q13 16 13 48v257h-156v-257q0 -35 15 -51 q13 -15 31 -18l38 -1v-50h-283zM219 436h156v112q-8 5 -18 26.5t-26.5 37.5t-43.5 16q-28 0 -48 -30t-20 -92v-70z" />
<glyph horiz-adv-x="0" />
<glyph horiz-adv-x="333" />
<glyph unicode=" "  horiz-adv-x="250" />
<glyph unicode="&#x09;" horiz-adv-x="250" />
<glyph unicode="&#xa0;" horiz-adv-x="250" />
<glyph unicode="!" horiz-adv-x="308" d="M133 242l-38 241q-16 103 -16 146q0 29 17 39.5t64 10.5q46 0 62.5 -12t16.5 -44q0 -45 -18 -147l-40 -234h-48zM67 78q0 36 26 61.5t63 25.5q35 0 60.5 -26t25.5 -62q0 -37 -25.5 -62t-62.5 -25q-36 0 -61.5 25.5t-25.5 62.5z" />
<glyph unicode="&#x22;" horiz-adv-x="386" d="M242 400l-21 201q-2 18 -2 24q0 28 15.5 43.5t41.5 15.5q27 0 42.5 -16t14.5 -43l-1 -24l-22 -201h-68zM76 400l-22 201q-1 9 -1 24q0 28 15.5 43.5t41.5 15.5t41.5 -15.5t15.5 -42.5q0 -5 -2 -25l-21 -201h-68z" />
<glyph unicode="#" horiz-adv-x="500" d="M78 0l43 201h-101l15 69h101l26 123h-101l14 69h101l40 188h43l-40 -188h128l40 188h42l-40 -188h95l-15 -69h-94l-26 -123h94l-15 -69h-94l-43 -201h-42l43 201h-128l-43 -201h-43zM179 270h128l26 123h-128z" />
<glyph unicode="$" horiz-adv-x="534" d="M249 -116v107q-108 -1 -175.5 35t-67.5 94q0 30 18.5 50t45.5 20q25 0 47 -20q10 -10 13.5 -16.5t14.5 -38.5q9 -27 38.5 -47t65.5 -23v216q-69 31 -131 72q-45 30 -71 73.5t-26 89.5q0 106 100 156q60 29 128 30v89h46v-89q90 -2 151 -38t61 -87q0 -27 -19 -46.5 t-46 -19.5q-30 0 -51 24q-10 12 -13.5 18.5t-10.5 32.5q-12 46 -72 58v-195q85 -44 120 -68q112 -76 112 -178q0 -43 -19.5 -81t-51.5 -61q-31 -22 -73.5 -36.5t-74.5 -14.5q-6 0 -13 1v-107h-46zM249 454v173q-75 -19 -75 -85q0 -56 75 -88zM295 45q44 15 62 34.5t18 52.5 t-18 57t-62 49v-193z" />
<glyph unicode="%" horiz-adv-x="686" d="M151 327q-55 0 -89.5 48t-34.5 123q0 76 33.5 121t89.5 45q55 0 89 -47.5t34 -124.5q0 -73 -34 -119t-88 -46zM153 0l327 660h53l-326 -660h-54zM149 361q17 0 22 27.5t5 114.5q0 72 -5 102q-3 24 -22 24q-16 0 -21 -25t-5 -110q0 -84 5 -108.5t21 -24.5zM413 167 q0 76 33.5 121t89.5 45t90 -47t34 -125q0 -73 -34 -118.5t-89 -45.5q-54 0 -89 48t-35 122zM509 164q0 -84 5 -108.5t22 -24.5t22 27t5 114q0 72 -5 102q-3 24 -22 24q-17 0 -22 -25t-5 -109z" />
<glyph unicode="&#x26;" horiz-adv-x="725" d="M598 -2l-20 -1q-77 -4 -145 78q-99 -82 -215 -82q-92 0 -148 43.5t-56 114.5q0 80 85 156q22 19 94 71q-26 28 -43 66t-17 67q0 76 83 130q61 39 119 39q52 0 88.5 -35.5t36.5 -86.5q0 -44 -53 -87q-13 -10 -64 -46q55 -55 162 -201q22 25 39.5 62t17.5 57q0 28 -49 34 l-8 1v47h207v-47q-35 -8 -57 -27.5t-59 -77.5q-8 -12 -29 -40q-31 -39 -36 -47q70 -91 96.5 -110.5t84.5 -22.5v-53h-9q-53 0 -72 -1q-7 0 -18 -0.5t-15 -0.5zM309 458l3 2l2 1l1 1q25 14 43 36.5t18 39.5q0 26 -27.5 56t-50.5 30t-39.5 -17t-16.5 -41q0 -22 23 -55 q28 -38 44 -53zM399 124l-51 69q-63 86 -123 149q-71 -65 -71 -111q0 -47 46 -105q47 -59 103 -59q27 0 55.5 13t47.5 34z" />
<glyph unicode="'" horiz-adv-x="219" d="M76 400l-22 201q-1 9 -1 24q0 28 15.5 43.5t41.5 15.5t41.5 -15.5t15.5 -42.5q0 -5 -2 -25l-21 -201h-68z" />
<glyph unicode="(" horiz-adv-x="384" d="M371 -115l-30 -48q-91 41 -181 149q-51 61 -79 135.5t-28 148.5q0 152 121 286q84 94 167 126l30 -41q-50 -39 -75 -65t-46 -62q-74 -121 -74 -250q0 -117 51 -215.5t144 -163.5z" />
<glyph unicode=")" horiz-adv-x="384" d="M13 -115q93 64 144 163.5t51 215.5q0 143 -85 268q-35 51 -110 109l30 41q94 -36 184 -146q104 -126 104 -266q0 -168 -125 -305q-82 -90 -163 -128z" />
<glyph unicode="*" horiz-adv-x="583" d="M179 242l-43 30l62 138l-131 79l16 48l153 -17l30 147h51l32 -147l153 17l15 -48l-132 -79l64 -138l-41 -30l-117 98z" />
<glyph unicode="+" d="M192 131v165h-162v92h162v164h96v-164h162v-92h-162v-165h-96z" />
<glyph unicode="," horiz-adv-x="231" d="M46 -157l-23 50q41 7 72.5 30.5t31.5 47.5q0 19 -14 25q-6 3 -33 7q-25 4 -40.5 23t-15.5 48q0 34 23 58t56 24q43 0 74 -39t31 -94q0 -77 -51 -123q-48 -44 -111 -57z" />
<glyph unicode="-" horiz-adv-x="303" d="M33 178v103h236v-103h-236z" />
<glyph unicode="." horiz-adv-x="240" d="M33 78q0 36 26 61.5t63 25.5q35 0 60.5 -26t25.5 -62q0 -37 -25.5 -62t-62.5 -25q-36 0 -61.5 25.5t-25.5 62.5z" />
<glyph unicode="/" horiz-adv-x="424" d="M-13 -133l327 800h96l-326 -800h-97z" />
<glyph unicode="0" d="M242 -7q-94 0 -154 96t-60 245q0 152 57.5 242.5t154.5 90.5q96 0 154.5 -94.5t58.5 -249.5q0 -147 -58.5 -238.5t-152.5 -91.5zM239 50q29 0 40 35q13 46 13 260q0 167 -12 225q-8 38 -40 38q-33 0 -41 -40q-11 -52 -11 -238q0 -93 2 -144t7.5 -83.5t15 -42.5t26.5 -10z " />
<glyph unicode="1" d="M103 0v52q48 1 67 15t19 49v319q0 45 -8 55.5t-41 10.5h-37v56q68 24 98.5 45.5t57.5 64.5h77v-551q0 -34 18 -48t64 -16v-52h-315z" />
<glyph unicode="2" d="M8 0v105l136 145q59 63 92 120q27 48 27 103q0 56 -23.5 89t-62.5 33q-20 0 -39 -9t-19 -18t17 -16q39 -18 39 -62q0 -36 -21 -58.5t-55 -22.5q-38 0 -63 28t-25 71q0 72 56 115.5t149 43.5t149 -47t56 -124q0 -57 -27 -103t-96 -104l-195 -165h228q27 0 37.5 13.5 t10.5 48.5v4h54v-190h-425z" />
<glyph unicode="3" d="M16 132q0 37 24.5 63t58.5 26q32 0 54 -22t22 -54q0 -25 -18 -53q-8 -14 -8 -21q0 -20 39 -20q44 0 63.5 31.5t19.5 104.5q0 69 -16.5 98t-58.5 32q-24 1 -32.5 8.5t-8.5 26.5q0 20 8.5 27.5t33.5 9.5q34 3 47.5 27.5t13.5 80.5q0 112 -72 112q-30 0 -30 -17q0 -4 11 -24 q14 -23 14 -50q0 -29 -20.5 -46.5t-54.5 -17.5q-38 0 -59 20.5t-21 58.5q0 59 53 96.5t137 37.5q91 0 147 -42.5t56 -110.5q0 -55 -36.5 -98t-97.5 -61q74 -16 113.5 -60.5t39.5 -111.5q0 -83 -64 -136.5t-162 -53.5q-86 0 -141 39t-55 100z" />
<glyph unicode="4" d="M8 154v72l287 441h95v-435h67v-78h-67v-14q0 -50 12 -65.5t55 -19.5v-55h-284v55h8q45 0 59 24q9 15 9 61v14h-241zM84 232h165v232v32z" />
<glyph unicode="5" d="M145 544l-8 -154q68 38 124 38q80 0 133 -59.5t53 -150.5q0 -99 -64 -162t-165 -63q-80 0 -132.5 40t-52.5 101q0 37 24 63.5t58 26.5q31 0 51 -20.5t20 -52.5q0 -33 -21 -59q-8 -11 -8 -15q0 -8 13.5 -15t30.5 -7q27 0 42.5 14.5t26.5 49.5q11 36 11 103q0 128 -61 128 q-39 0 -83 -50h-62l17 367h234q22 0 28 11h56v-134h-265z" />
<glyph unicode="6" d="M261 -7q-103 0 -159 82.5t-56 233.5q0 166 64 262t175 96q70 0 115.5 -35.5t45.5 -88.5q0 -35 -21 -57.5t-52 -22.5q-30 0 -49 19t-19 50q0 23 10 44q6 10 6 14q0 6 -9.5 11t-22.5 5q-29 0 -49.5 -22.5t-29.5 -63.5q-13 -67 -13 -135q57 28 105 28q68 0 113.5 -57 t45.5 -144q0 -95 -56 -157t-144 -62zM215 89q14 -36 43 -36q46 0 46 126q0 86 -12 121t-41 35q-31 0 -41 -34q-7 -27 -7 -80q0 -103 12 -132z" />
<glyph unicode="7" d="M442 667v-79q-50 -75 -80.5 -168t-52.5 -239q-12 -77 -18.5 -103t-17.5 -44q-27 -41 -77 -41q-34 0 -56 22t-22 56q0 55 53 168q55 119 113 200q57 82 67 105h-167q-55 0 -76.5 -15.5t-28.5 -59.5h-54v198h417z" />
<glyph unicode="8" d="M32 167q0 76 51 116q16 13 50 34q-88 65 -88 161q0 86 56.5 137.5t152.5 51.5q82 0 133 -43.5t51 -113.5q0 -87 -97 -137q106 -62 106 -170q0 -45 -15 -86.5t-41 -67.5q-58 -56 -162 -56q-89 0 -143 47.5t-54 126.5zM296 402l2 3q11 15 18.5 45t7.5 56q0 44 -24.5 71 t-65.5 27q-35 0 -57 -19.5t-22 -50.5q0 -47 71 -96q36 -24 67 -41q1 3 2 3zM146 164q0 -49 24.5 -77t67.5 -28q37 0 60.5 23.5t23.5 59.5q0 37 -36 76t-92 65q-48 -39 -48 -119z" />
<glyph unicode="9" d="M288 271v2q0 3 1 5q-54 -30 -113 -30q-67 0 -112 56.5t-45 141.5q0 97 56.5 159t143.5 62q103 0 159 -81.5t56 -231.5q0 -169 -62.5 -265t-172.5 -96q-69 0 -116.5 35.5t-47.5 87.5q0 34 22 57.5t54 23.5q30 0 48.5 -20t18.5 -52q0 -20 -14 -45q-2 -6 -2 -9q0 -13 22 -13 q71 0 90 90q2 4 14 123zM231 324q48 0 48 98q0 106 -11.5 144.5t-42.5 38.5q-48 0 -48 -126q0 -83 12.5 -119t41.5 -36z" />
<glyph unicode=":" horiz-adv-x="231" d="M114 281q-36 0 -61.5 25.5t-25.5 62.5q0 36 26 61.5t63 25.5q35 0 60.5 -26t25.5 -62q0 -37 -25.5 -62t-62.5 -25zM28 78q0 36 26 61.5t63 25.5q35 0 60.5 -26t25.5 -62q0 -37 -25.5 -62t-62.5 -25q-36 0 -61.5 25.5t-25.5 62.5z" />
<glyph unicode=";" horiz-adv-x="232" d="M110 280q-36 0 -61.5 25.5t-25.5 62.5q0 36 26 61.5t63 25.5q35 0 60.5 -26t25.5 -62q0 -37 -25.5 -62t-62.5 -25zM46 -157l-23 49q41 8 72.5 31.5t31.5 47.5q0 17 -14 25q-6 3 -33 7q-26 4 -41 23t-15 47q0 35 23 59t56 24q43 0 74 -39t31 -94q0 -77 -51 -123 q-48 -45 -111 -57z" />
<glyph unicode="&#x3c;" horiz-adv-x="500" d="M35 336l421 266v-82l-292 -183l292 -183v-82z" />
<glyph unicode="=" d="M30 371v87h420v-87h-420zM30 226v87h420v-87h-420z" />
<glyph unicode="&#x3e;" horiz-adv-x="500" d="M44 72v82l292 183l-292 183v82l421 -265z" />
<glyph unicode="?" horiz-adv-x="446" d="M135 215l-4 59q-2 28 -6 47q0 1 -12 44q-2 12 -2 16q0 20 21 29q8 3 65 12q123 20 123 86q0 31 -27.5 56t-61.5 25q-24 0 -71 -16q-61 -21 -84 -21q-19 0 -31 17.5t-12 43.5q0 36 25 51t85 15q52 0 107 -22t94 -58q34 -32 54.5 -77.5t20.5 -90.5q0 -60 -44 -96t-144 -58 q-28 -6 -35 -14.5t-11 -39.5l-1 -8h-49zM80 78q0 36 26 61.5t63 25.5q35 0 60.5 -26t25.5 -62q0 -37 -25.5 -62t-62.5 -25q-36 0 -61.5 25.5t-25.5 62.5z" />
<glyph unicode="@" horiz-adv-x="726" d="M599 -10l18 -44q-113 -46 -225 -46q-166 0 -269 95.5t-103 247.5q0 150 104 252t258 102q138 0 231 -84.5t93 -210.5q0 -99 -60 -167.5t-147 -68.5q-78 0 -87 68q-29 -38 -53.5 -52.5t-61.5 -14.5q-51 0 -79 32t-28 91q0 94 55.5 159.5t134.5 65.5q55 0 80 -44l8 36h80 l-44 -199q-14 -64 -14 -75q0 -17 9 -27t24 -10q50 0 90.5 63t40.5 142q0 112 -76.5 185t-192.5 73q-130 0 -217.5 -90.5t-87.5 -224.5q0 -137 87 -219t232 -82q98 0 200 47zM278 161q0 -29 11.5 -46.5t30.5 -17.5q43 0 81 68.5t43 154.5q2 32 -11.5 51t-37.5 19 q-43 0 -70 -49q-47 -86 -47 -180z" />
<glyph unicode="A" horiz-adv-x="635" d="M-13 0v53q61 1 83 66l171 483l-24 65h179l198 -552q21 -56 68 -62v-53h-321v53q40 2 57 15.5t17 42.5q0 15 -6 32l-38 105h-194q-31 -108 -31 -130q0 -30 16.5 -45.5t54.5 -19.5v-53h-230zM196 308h153l-80 221z" />
<glyph unicode="B" horiz-adv-x="669" d="M27 0v53h8q41 0 54 17t13 70v387q0 53 -13 70t-54 17h-8v53h356q109 0 177 -46.5t68 -120.5q0 -116 -161 -157q73 -12 119 -46q63 -48 63 -120q0 -95 -90 -145q-60 -32 -176 -32h-356zM269 369h52q69 0 100.5 27t31.5 88q0 71 -44 105q-33 25 -101 25h-39v-245zM269 152 q0 -100 85 -100q54 0 84.5 35t30.5 99q0 74 -52 110q-36 24 -109 24h-39v-168z" />
<glyph unicode="C" horiz-adv-x="687" d="M661 211l-10 -160q-149 -61 -273 -61q-151 0 -247 80q-49 41 -76.5 105.5t-27.5 140.5q0 158 104.5 260.5t266.5 102.5q103 0 225 -53l19 -158h-73q-23 72 -71 114t-106 42q-87 0 -138 -78q-45 -71 -45 -214q0 -156 58 -224q51 -62 133 -62q69 0 117 42.5t68 122.5h76z " />
<glyph unicode="D" horiz-adv-x="748" d="M27 0v53h9q41 0 54 17t13 70v387q0 53 -13 70t-54 17h-9v53h310q115 0 168 -17q103 -31 160.5 -114t57.5 -198q0 -107 -53 -188t-147 -120q-65 -28 -132 -29q-17 -1 -110 -1h-254zM273 125q0 -26 23 -49q21 -21 62 -21q84 0 134 73t50 195q0 153 -80 236q-56 56 -163 56 q-14 0 -26 -1v-489z" />
<glyph unicode="E" horiz-adv-x="639" d="M27 0v53h7q41 0 54 17t13 70v387q0 53 -13 70t-54 17h-7v53h571v-148h-62q-34 55 -74.5 75t-115.5 20h-77v-237h93q53 0 75.5 17t32.5 66h66v-224h-66q-11 41 -24 55q-29 31 -88 31h-89v-174q0 -49 25 -71.5t80 -22.5q119 0 196 119h68l-32 -173h-579z" />
<glyph unicode="F" horiz-adv-x="588" d="M27 0v53h8q41 0 54 17t13 70v387q0 53 -13 70t-54 17h-8v53h561v-147h-62q-30 47 -55 66q-39 28 -93 28h-107v-247h65q60 0 85 18.5t30 66.5h66v-228h-66q-11 88 -101 88h-79v-172q0 -53 13 -70t54 -17h12v-53h-323z" />
<glyph unicode="G" horiz-adv-x="713" d="M643 196v-161q-114 -45 -255 -45q-154 0 -246 76q-55 44 -85 112t-30 145q0 154 106.5 255t267.5 101q123 0 236 -58l6 -154h-70q-20 71 -70 114t-112 43q-88 0 -134.5 -74.5t-46.5 -214.5t50 -215.5t142 -75.5q40 0 77 18v134q0 53 -12.5 70t-49.5 17h-20v53h316v-53h-7 q-37 0 -50 -18t-13 -69z" />
<glyph unicode="H" horiz-adv-x="828" d="M27 0v53h9q41 0 54 17t13 70v387q0 53 -13 70t-54 17h-9v53h321v-53h-10q-41 0 -54 -17t-13 -70v-156h290v156q0 53 -13 70t-54 17h-11v53h319v-53h-7q-41 0 -54 -17t-13 -70v-387q0 -53 13 -70t54 -17h7v-53h-319v53h11q41 0 54 17t13 70v171h-290v-171q0 -53 13 -70 t54 -17h10v-53h-321z" />
<glyph unicode="I" horiz-adv-x="373" d="M27 0v53h9q41 0 54 17t13 70v387q0 53 -13 70t-54 17h-9v53h320v-53h-9q-41 0 -54 -17t-13 -70v-387q0 -53 13 -70t54 -17h9v-53h-320z" />
<glyph unicode="J" horiz-adv-x="375" d="M274 527v-421q0 -141 -70 -208q-61 -56 -148 -56q-55 0 -89 20t-34 52q0 23 18 39t44 16q40 0 59 -37q8 -16 13 -21t12 -5q12 0 16.5 8t7.5 35v578q0 53 -13 70t-54 17h-6v53h318v-53h-7q-41 0 -54 -17t-13 -70z" />
<glyph unicode="K" horiz-adv-x="699" d="M27 0v53h11q41 0 54 17t13 70v387q0 53 -13 70t-54 17h-11v53h321v-53h-9q-41 0 -54 -17t-13 -70v-159l51 50q95 93 121 122.5t26 45.5q0 13 -13.5 20.5t-36.5 7.5h-2v53h249v-53q-43 -4 -70.5 -21t-89.5 -76l-53 -51l-61 -55q73 -77 201 -244q91 -118 132 -114v-53h-199 q-62 57 -120 132l-135 175v-167q0 -53 13 -70t54 -17h9v-53h-321z" />
<glyph unicode="L" horiz-adv-x="567" d="M27 0v53h7q41 0 54 17t13 70v387q0 53 -13 70t-54 17h-7v53h321v-53h-9q-41 0 -54 -17t-13 -70v-393q0 -36 15 -52q28 -28 75 -28q50 0 98 33t76 87h59l-29 -174h-539z" />
<glyph unicode="M" horiz-adv-x="890" d="M7 0v53q35 3 51.5 23.5t24.5 71.5l55 352q5 33 5 53q0 31 -13 44t-47 17v53h237v-11q0 -68 51 -197l77 -194q86 196 98 232q34 94 34 160v10h241v-53q-41 -5 -56.5 -22t-15.5 -55q0 -8 1 -10l54 -392q10 -75 80 -82v-53h-331v53h7q37 0 58 18q16 13 16 51q0 19 -2 41 l-38 301l-106 -257q-43 -106 -66 -207h-64q-7 74 -78 251l-87 217l-41 -269q-7 -44 -7 -69q0 -38 18.5 -56t61.5 -21v-53h-218z" />
<glyph unicode="N" horiz-adv-x="769" d="M31 0v53h26q41 0 54 17t13 70v387q0 53 -13 70t-54 17h-30v53h216l363 -402v262q0 53 -13 70t-54 17h-32v53h236v-53h-14q-41 0 -54 -17t-13 -70v-239q0 -157 20 -288h-55l-449 489v-349q0 -53 13 -70t54 -17h41v-53h-255z" />
<glyph unicode="O" horiz-adv-x="751" d="M27 318q0 154 102.5 257.5t254.5 103.5q155 0 253 -103q87 -90 87 -237q0 -150 -103.5 -249.5t-258.5 -99.5q-146 0 -240.5 92.5t-94.5 235.5zM382 44q77 0 120 71.5t43 198.5q0 145 -45.5 226.5t-125.5 81.5q-78 0 -119.5 -72t-41.5 -208q0 -143 44 -220.5t125 -77.5z " />
<glyph unicode="P" horiz-adv-x="636" d="M27 0v53h7q41 0 54 17t13 70v387q0 53 -13 70t-54 17h-7v53h325q103 0 132.5 -4.5t58.5 -21.5q41 -25 64 -67t23 -91q0 -59 -33.5 -104.5t-89.5 -64.5q-67 -21 -151 -21q-53 0 -53 10v39q0 10 7 13q3 1 35 1q105 0 105 113q0 103 -71 133q-9 4 -16.5 5.5t-13 2t-25 1.5 t-35.5 2l-16 1v-474q0 -53 13 -70t54 -17h8v-53h-321z" />
<glyph unicode="Q" horiz-adv-x="751" d="M725 -41v-105q-29 -1 -47 -1q-121 0 -210.5 31.5t-209.5 115.5q-109 35 -170 119t-61 200q0 155 101.5 257.5t254.5 102.5q152 0 247 -93.5t95 -241.5q0 -118 -58.5 -204t-166.5 -127q74 -44 210 -53zM382 42q75 0 120 70.5t45 189.5q0 79 -17 152t-43 109 q-43 58 -115 58q-76 0 -118.5 -74t-42.5 -206q0 -140 45.5 -219.5t125.5 -79.5z" />
<glyph unicode="R" horiz-adv-x="692" d="M27 0v53h9q41 0 54 17t13 70v387q0 53 -13 70t-54 17h-9v53h349q74 0 112.5 -9t73.5 -34q72 -51 72 -134q0 -57 -41 -103t-107 -66q29 -35 53 -77l26 -42q5 -8 11.5 -18t10 -15.5t4.5 -8.5q55 -99 115 -107v-53h-192q-49 48 -144 217q-45 81 -85 81h-13v-158 q0 -53 13 -70t54 -17h9v-53h-321zM272 353q22 -1 42 -1q77 0 110.5 28.5t33.5 94.5q0 81 -49 114q-30 21 -110 21q-15 0 -27 -1v-256z" />
<glyph unicode="S" horiz-adv-x="545" d="M21 41v163h78q19 -77 61.5 -118.5t102.5 -41.5q47 0 76 24.5t29 64.5q0 57 -76 100q-46 25 -120 61q-73 36 -118 90q-35 44 -35 106q0 88 67 138.5t182 50.5q122 0 218 -52v-155h-71q-16 61 -38 94q-40 60 -108 60q-41 0 -67.5 -23.5t-26.5 -60.5q0 -24 11 -41t37 -34 q27 -17 97 -50q90 -45 132 -78q74 -57 74 -153q0 -93 -72.5 -144.5t-202.5 -51.5q-67 0 -117.5 11t-112.5 40z" />
<glyph unicode="T" horiz-adv-x="616" d="M146 0v53h9q41 0 54 17t13 70v474h-51q-41 0 -77 -31t-56 -84h-51v168h643v-168h-56q-17 52 -49 83.5t-68 31.5h-64v-474q0 -53 13 -70t54 -17h7v-53h-321z" />
<glyph unicode="U" horiz-adv-x="709" d="M628 527v-250q0 -88 -14 -134t-51 -81q-76 -72 -211 -72q-160 0 -230 89q-24 31 -33 65t-9 95v288q0 53 -13 70t-54 17h-6v53h327v-53h-16q-41 0 -54 -17t-13 -70v-250q0 -66 5.5 -96t20.5 -53q36 -53 125 -53q106 0 151 80q20 36 20 154v218q0 53 -13 70t-54 17h-30v53 h227v-53h-8q-41 0 -54 -17t-13 -70z" />
<glyph unicode="V" horiz-adv-x="622" d="M261 87l-186 429q-22 52 -42 75t-42 23h-4v53h297v-52q-5 -1 -11 -1q-44 -3 -44 -36q0 -11 12 -40l127 -307l108 252q18 42 18 68q0 33 -16 48t-52 16v52h210v-52q-28 -6 -46 -25.5t-37 -63.5l-165 -385q-34 -80 -49 -141h-55q-4 45 -23 87z" />
<glyph unicode="W" horiz-adv-x="939" d="M235 0q-6 60 -35 138l-133 366q-21 57 -38.5 82t-41.5 28v53h288v-53l-12 -1q-38 -3 -38 -38q0 -22 10 -48l111 -310l92 254l-21 56q-29 80 -87 87v53h316v-53q-59 -2 -59 -50q0 -18 9 -43l110 -304l5 15q2 7 6 16.5t4 11.5l11 30l76 214q11 32 11 42q0 65 -87 68v53h220 v-53q-43 -16 -72 -93l-148 -395q-24 -65 -31 -126h-105q-1 35 -27 106l-102 283l-116 -316l-11 -29q-6 -17 -10 -44h-95z" />
<glyph unicode="X" horiz-adv-x="643" d="M-4 0v53q80 3 137 82l118 162l-169 248q-27 39 -44 51.5t-51 17.5v53h343v-53q-28 -1 -38 -6q-20 -11 -20 -32q0 -13 3.5 -21t17.5 -29l60 -90l54 73q35 47 35 68q0 34 -54 37v53h222v-53q-41 -5 -65 -22t-58 -62l-104 -139l176 -262q26 -39 47.5 -56.5t50.5 -19.5v-53 h-347v53q66 0 66 36q0 26 -36 79l-57 84l-61 -84q-35 -49 -35 -70q0 -25 22 -37q10 -6 42 -8v-53h-255z" />
<glyph unicode="Y" horiz-adv-x="620" d="M155 0v53h14q41 0 54 17t13 70v110l-175 308q-20 34 -33 44t-41 12v53h325v-53h-15q-52 0 -52 -35q0 -20 24 -66l93 -173l105 173q21 36 21 54q0 43 -66 47v53h212v-53q-25 -4 -46.5 -26t-58.5 -80l-151 -237v-131q0 -53 13 -70t54 -17h21v-53h-311z" />
<glyph unicode="Z" horiz-adv-x="604" d="M0 0v50l370 559h-99q-43 0 -67.5 -7.5t-46.5 -26.5q-30 -26 -51 -66h-69v158h551l-9 -38l-374 -571h132q82 0 130 39q38 33 57 75h81l-40 -172h-565z" />
<glyph unicode="[" horiz-adv-x="311" d="M67 -162v846l238 1v-56h-62q-26 0 -37.5 -15t-11.5 -51v-604q0 -35 11.5 -50.5t37.5 -15.5h62v-56z" />
<glyph unicode="\" horiz-adv-x="432" d="M401 -224l-358 924h69l358 -924h-69z" />
<glyph unicode="]" horiz-adv-x="311" d="M7 -107h62q26 0 37.5 15.5t11.5 50.5v604q0 36 -11.5 51t-37.5 15h-62v56l238 -1v-846l-238 -1v56z" />
<glyph unicode="^" horiz-adv-x="500" d="M44 405l193 308h9l209 -308h-114l-116 172l-109 -172h-72z" />
<glyph unicode="_" horiz-adv-x="500" d="M0 -90h500v-57h-500v57z" />
<glyph unicode="`" horiz-adv-x="500" d="M294 498l-137 157h130l56 -157h-49z" />
<glyph unicode="a" horiz-adv-x="510" d="M480 103l10 -53q-54 -60 -111 -60q-30 0 -49.5 14t-36.5 46q-57 -60 -140 -60q-58 0 -95.5 31.5t-37.5 80.5q0 58 51 91q27 18 100 41l117 37v41q0 81 -61 81q-24 0 -39.5 -13.5t-15.5 -35.5q0 -17 7 -45l-124 -40q-20 31 -20 63q0 56 59 92t151 36q105 0 149 -42 q30 -27 30 -100v-187q0 -38 21 -38q11 0 35 20zM278 212l-30 -12q-44 -17 -62.5 -34.5t-18.5 -39.5q0 -20 16.5 -33t41.5 -13q27 0 63 23v113z" />
<glyph unicode="b" horiz-adv-x="547" d="M73 43v516l-60 35v38l11 2l61 10q31 6 77 23h49v-284q75 67 160 67q67 0 110 -56q46 -61 46 -147q0 -54 -18.5 -104.5t-49.5 -82.5q-68 -70 -196 -70q-107 0 -190 53zM211 318v-153q0 -52 13 -81q21 -44 64 -44q21 0 40.5 11.5t30.5 29.5q21 36 21 102q0 73 -27.5 117 t-73.5 44q-36 0 -68 -26z" />
<glyph unicode="c" horiz-adv-x="438" d="M384 129l36 -35q-79 -104 -193 -104q-90 0 -148.5 61.5t-58.5 156.5q0 107 66 174.5t171 67.5q72 0 120 -34t48 -86q0 -28 -17.5 -47t-43.5 -19q-27 0 -46 20.5t-26 57.5q-9 52 -55 52q-38 0 -59.5 -34.5t-21.5 -96.5q0 -74 37 -121.5t95 -47.5q44 0 96 35z" />
<glyph unicode="d" horiz-adv-x="539" d="M328 -16v75q-79 -69 -140 -69q-32 0 -65 15.5t-55 40.5q-49 55 -49 152q0 101 66.5 176.5t155.5 75.5q37 0 87 -19v128l-69 35v38q108 23 164 46h43v-543q0 -31 6.5 -42.5t24.5 -10.5l15 1l7 1v-55zM328 110v216q-24 66 -78 66q-37 0 -59.5 -41.5t-22.5 -110.5 q0 -72 25 -113t68 -41q32 0 67 24z" />
<glyph unicode="e" horiz-adv-x="452" d="M394 139l38 -37q-20 -28 -52 -54q-40 -33 -72.5 -45.5t-76.5 -12.5q-92 0 -151.5 63t-59.5 161q0 80 43 144q61 92 172 92q117 0 168 -95q22 -38 29 -108h-273q5 -66 44.5 -109t94.5 -43q25 0 42.5 8t53.5 36zM159 293h122q-3 98 -62 98q-34 0 -52 -51q-4 -15 -8 -47z " />
<glyph unicode="f" horiz-adv-x="295" d="M20 0v50l17 1q6 0 17.5 7t15.5 14q13 16 13 48v257h-63v59h21q17 0 25.5 9.5t15.5 36.5q19 72 41 105q28 40 76.5 63.5t104.5 23.5q49 0 83.5 -27.5t34.5 -66.5q0 -29 -17.5 -46.5t-46.5 -17.5q-35 0 -54 28q-11 16 -17 46q-2 10 -11 17.5t-19 7.5q-19 0 -31 -22 q-7 -15 -7 -65v-92h84v-59h-84v-257q0 -35 15 -51q13 -15 31 -18l38 -1v-50h-283z" />
<glyph unicode="g" horiz-adv-x="492" d="M237 152l-37 1q-32 -20 -32 -39q0 -14 21 -18.5t91 -3.5q66 1 99 -5t54 -21q46 -33 46 -95q0 -79 -72.5 -127.5t-189.5 -48.5q-89 0 -139.5 26t-50.5 71q0 56 72 88q-49 23 -49 71q0 34 22.5 60t75.5 53q-49 15 -76.5 50t-27.5 82q0 69 55.5 111.5t145.5 42.5q26 0 84 -9 q35 -5 76 -5h94l-5 -89q-19 0 -32 1l-28 3l-10 1q6 -18 6 -42q0 -74 -52 -117t-141 -41zM238 203q28 0 43.5 25t15.5 69q0 46 -16.5 74.5t-42.5 28.5q-28 0 -45 -26.5t-17 -69.5q0 -46 16.5 -73.5t45.5 -27.5zM118 -83q0 -32 34 -51t93 -19q55 0 94.5 21t39.5 50 q0 27 -26 34q-21 6 -140 8q-29 0 -67 6q-19 -20 -23.5 -28t-4.5 -21z" />
<glyph unicode="h" horiz-adv-x="568" d="M20 0v50l16 1q6 1 17.5 8t15.5 13q13 16 13 48v439l-62 35v38q43 5 89 15t65 20h44v-295q87 69 149 69q56 0 91 -40.5t35 -104.5v-176q0 -35 15 -51q16 -16 31 -18l9 -1v-50h-241v50l4 1q26 7 36 22.5t10 46.5v113q0 70 -13 93t-53 23t-73 -29v-200q0 -31 10 -46.5 t36 -22.5l4 -1v-50h-248z" />
<glyph unicode="i" horiz-adv-x="295" d="M152 515q-34 0 -56 22.5t-22 57.5q0 33 23 56t56 23q35 0 57.5 -22t22.5 -56q0 -32 -24.5 -56.5t-56.5 -24.5zM26 0v50l15 1q6 1 17.5 8t15.5 13q13 16 13 48v202l-67 36v35l18 6q72 23 147 49h38v-328q0 -59 46 -69l5 -1v-50h-248z" />
<glyph unicode="j" horiz-adv-x="276" d="M134 515q-34 0 -56 22.5t-22 57.5q0 33 23 56t56 23q35 0 57.5 -22t22.5 -56q0 -32 -24.5 -56.5t-56.5 -24.5zM-7 -127q58 80 70.5 121t12.5 150v183l-65 36v38q85 20 150 48h52v-335q0 -62 -7 -87t-34 -61q-21 -29 -62.5 -71t-65.5 -60z" />
<glyph unicode="k" horiz-adv-x="515" d="M20 0v50l15 1q6 1 17.5 8t15.5 13q13 16 13 48v417q-21 19 -61 38v38q110 30 153 54h41v-434l67 61q39 36 39 58q0 30 -45 35v49h234v-49q-39 -1 -87.5 -33.5t-92.5 -86.5l114 -131q32 -36 46.5 -48.5t38.5 -18.5v-69q-38 -10 -72 -10q-61 0 -113 64l-129 158v-92 q0 -35 15 -51q14 -16 31 -18l10 -1v-50h-250z" />
<glyph unicode="l" horiz-adv-x="287" d="M20 0v50l14 1q7 1 18 7.5t15 13.5q13 16 13 48v411q-22 19 -32 26q0 1 -28 17v39l5 2q51 14 64 17q39 11 80 35h47v-547q0 -59 46 -69l5 -1v-50h-247z" />
<glyph unicode="m" horiz-adv-x="867" d="M25 0v50l14 1q7 1 18 7.5t15 13.5q13 16 13 48v212l-65 35v37q74 17 156 45h46v-63q68 64 149 64q91 0 124 -73q52 43 86 58t80 15q59 0 93 -34q41 -39 41 -97v-199q0 -61 46 -69l6 -1v-50h-242v50l5 1q46 10 46 69v188q0 24 -18 38.5t-48 14.5q-40 0 -80 -29v-212 q0 -61 46 -69l6 -1v-50h-243v50l8 1q18 2 33 21q13 16 13 48v167q0 76 -59 76q-49 0 -92 -31v-212q0 -35 15 -51q14 -14 31 -18l8 -1v-50h-251z" />
<glyph unicode="n" horiz-adv-x="566" d="M20 0v50l15 1q6 1 17.5 8t15.5 13q13 16 13 48v211l-61 33v35q39 7 150 50h47v-66q33 30 72.5 48.5t71.5 18.5q55 0 93.5 -39.5t38.5 -96.5v-194q0 -63 46 -69l7 -1v-50h-243v50l9 1q18 2 33 21q13 16 13 48v179q0 28 -16.5 44t-45.5 16q-42 0 -79 -28v-211q0 -27 7 -40 t27 -24l11 -6v-50h-242z" />
<glyph unicode="o" horiz-adv-x="504" d="M20 217q0 102 65.5 167.5t167.5 65.5q110 0 177 -76q54 -61 54 -155q0 -100 -65 -164.5t-165 -64.5q-104 0 -169 63.5t-65 163.5zM203 88q12 -25 25 -35t32 -10q67 0 67 150q0 102 -29 163q-18 38 -50 38q-34 0 -52.5 -41.5t-18.5 -116.5q0 -91 26 -148z" />
<glyph unicode="p" horiz-adv-x="560" d="M82 -47v375l-62 33v38q17 2 72 19.5t86 30.5h41v-80q29 37 69.5 59t80.5 22q77 0 124 -58.5t47 -152.5q0 -107 -67 -175.5t-172 -68.5q-42 0 -82 12v-54q0 -35 15 -51q13 -15 31 -18l39 -1v-50h-284v50l16 1q6 1 17.5 8t15.5 13q13 16 13 48zM219 168q0 -64 18 -91.5 t60 -27.5q50 0 77 36.5t27 104.5q0 71 -29.5 112.5t-78.5 41.5q-44 0 -74 -30v-146z" />
<glyph unicode="q" horiz-adv-x="537" d="M327 -47v102q-84 -65 -142 -65q-71 0 -118.5 59t-47.5 147q0 107 70.5 180.5t173.5 73.5q67 0 144 -44v40h57v-493q0 -61 46 -69l6 -1v-50h-266v50l31 1q6 1 17.5 8t15.5 13q13 16 13 48zM327 110v195q0 28 -4 40.5t-16 24.5q-23 24 -50 24q-41 0 -66.5 -40t-25.5 -105 q0 -70 28.5 -116t70.5 -46q28 0 63 23z" />
<glyph unicode="r" horiz-adv-x="414" d="M20 0v50l25 1q6 0 17.5 7t15.5 14q13 16 13 48v211l-61 29v40q88 25 141 47h51v-116q49 119 98 119q29 0 58 -23.5t29 -46.5t-28 -79q-9 -18 -14.5 -23.5t-15.5 -5.5q-15 0 -41 26q-25 25 -36 25q-22 0 -50 -84v-119q0 -35 15 -51q13 -15 31 -18l41 -1v-50h-289z" />
<glyph unicode="s" horiz-adv-x="369" d="M19 31l-6 122h51q15 -48 48.5 -78t72.5 -30q28 0 45.5 13t17.5 35q0 20 -18 33t-75 34q-87 32 -111 61q-31 37 -31 92q0 61 47.5 99t123.5 38q71 0 140 -33l7 -114h-50q-16 46 -44.5 71t-65.5 25q-22 0 -36.5 -10.5t-14.5 -27.5q0 -16 17 -27.5t77 -37.5q86 -37 112 -72 q29 -37 29 -90q0 -65 -47.5 -104.5t-124.5 -39.5q-82 0 -164 41z" />
<glyph unicode="t" horiz-adv-x="313" d="M76 119v257h-56v51q78 18 143 115l6 9h51v-115h95v-60h-95v-228q0 -43 7 -57q9 -18 37 -18q20 0 37 17l39 -37q-43 -63 -138 -63q-64 0 -95 31.5t-31 97.5z" />
<glyph unicode="u" horiz-adv-x="557" d="M68 133v152q0 46 -6.5 59.5t-33.5 22.5q-1 1 -8 3v55q6 1 86 4q61 3 97 7v-279q0 -80 55 -80q52 0 86 36v172q0 50 -9 64.5t-46 20.5v55q94 3 95 3l97 8v-302q0 -35 15 -51q14 -16 31 -18l10 -1v-50l-193 -28v68q-45 -38 -76 -53.5t-66 -15.5q-59 0 -96.5 41.5 t-37.5 106.5z" />
<glyph unicode="v" horiz-adv-x="446" d="M155 65l-119 249q-20 42 -33.5 57.5t-29.5 15.5v49h240v-49q-45 -3 -45 -33q0 -16 17 -50l72 -148l56 133q17 40 17 57q0 16 -14.5 27.5t-37.5 13.5v49h167v-49q-19 -5 -30 -16.5t-23 -40.5l-146 -336h-61q-9 27 -30 71z" />
<glyph unicode="w" horiz-adv-x="662" d="M137 53l-109 270q-17 42 -27 54t-28 11v48h212v-48q-28 -5 -28 -26q0 -12 12 -39l64 -156l60 130l-14 35q-14 36 -23.5 46t-30.5 10v48h228v-48q-39 -3 -39 -26q0 -13 10 -39l59 -148l51 122q15 37 15 52q0 20 -11.5 29t-39.5 10v48h163v-48q-21 -4 -33 -17t-27 -48 l-118 -279l-9 -21l-6 -19l-1 -2q-1 -1 -1.5 -3t-1.5 -4h-55l-2 6l-7 20l-9 23l-71 187l-87 -195q-10 -23 -11 -28q-3 -8 -4 -9l-1 -4h-59q-4 18 -21 58z" />
<glyph unicode="x" horiz-adv-x="460" d="M-5 0v50q39 4 112 83l60 64l-113 145q-21 27 -33 34.5t-34 9.5v50h244v-50q-31 -1 -31 -19q0 -9 26 -42l28 -35l25 29q26 31 26 43q0 24 -40 24v50h188v-50q-53 -3 -108 -67l-60 -70l114 -145q39 -50 61 -54v-50h-249v50h6q36 0 36 25q0 14 -22 42l-32 42l-26 -31 q-2 -4 -14 -16q-19 -19 -19 -35q0 -23 33 -27v-50h-178z" />
<glyph unicode="y" horiz-adv-x="460" d="M405 327l-158 -371q-52 -121 -149 -121q-40 0 -66.5 23t-26.5 58q0 27 18 46.5t43 19.5q18 0 28.5 -7t20.5 -25q9 -19 30 -19q38 0 61 62l-168 346q-20 42 -51 47v50h238v-50q-43 -5 -43 -30q0 -9 9 -29l83 -170l49 115q17 41 17 65q0 40 -52 49v50h172v-50 q-33 -6 -55 -59z" />
<glyph unicode="z" horiz-adv-x="417" d="M0 0v42l239 346h-17q-78 0 -114 -34q-22 -21 -42 -70h-48v174h48q6 -13 16 -17.5t35 -4.5h287v-48l-233 -336q8 -1 19 -1q124 0 173 98h54l-27 -149h-390z" />
<glyph unicode="{" horiz-adv-x="293" d="M273 -224h-69q-79 0 -111 38.5t-32 133.5q0 14 0.5 27t1 52t1.5 100q1 46 -11.5 66.5t-43.5 22.5v44q32 3 44 22.5t11 66.5l-3 163q-1 96 23 136q17 29 44 40.5t76 11.5h69v-49q-44 0 -63 -10q-24 -13 -33.5 -35.5t-8.5 -64.5l2 -176q1 -41 -4 -61t-18 -36 q-18 -22 -50 -30q42 -11 57.5 -37t14.5 -86l-2 -179q-1 -43 10.5 -66.5t38.5 -34.5q16 -7 56 -7v-52z" />
<glyph unicode="|" horiz-adv-x="500" d="M214 -167v834h72v-834h-72z" />
<glyph unicode="}" horiz-adv-x="293" d="M125 -65l-2 185q-1 55 15 81t57 37q-38 10 -55 36q-18 28 -17 88l2 178q1 46 -10.5 69.5t-37.5 34.5q-16 7 -57 7v49h69q53 0 81 -14t45 -49q17 -37 17 -124v-17t-0.5 -21t-1 -45.5t-1.5 -80.5q-1 -46 11.5 -66.5t43.5 -22.5v-44q-32 -3 -44 -22.5t-11 -66.5l3 -176 q1 -97 -31 -136t-112 -39h-69v52q42 0 61 10q25 13 35 34.5t9 62.5z" />
<glyph unicode="~" horiz-adv-x="500" d="M53 543l-25 12q37 58 72 83.5t75 25.5q30 0 93 -21q60 -20 89 -20q48 0 90 48l25 -13q-64 -108 -149 -108q-29 0 -76 16q-71 25 -106 25q-22 0 -36.5 -7.5t-41.5 -31.5z" />
<glyph unicode="&#xa1;" horiz-adv-x="308" d="M153 337q-35 0 -60.5 26t-25.5 61q0 37 25.5 62.5t61.5 25.5q37 0 62.5 -25t25.5 -62t-26 -62.5t-63 -25.5zM95 19l38 241h48l40 -234q18 -106 18 -149q0 -31 -17.5 -42.5t-61.5 -11.5q-46 0 -63.5 10.5t-17.5 39.5q0 43 16 146z" />
<glyph unicode="&#xa2;" d="M229 30v84q-88 8 -140.5 66t-52.5 147q0 93 55.5 160.5t137.5 74.5v89h44v-84q74 0 122 -33t48 -83q0 -28 -18.5 -47.5t-44.5 -19.5q-28 0 -49 23q-11 12 -14.5 21.5t-8.5 40.5q-4 19 -11 28t-24 16v-296q13 -3 22 -3q48 0 103 33l38 -34q-30 -39 -78 -68t-85 -31v-84 h-44zM229 239v274q-60 -26 -60 -129q0 -95 60 -145z" />
<glyph unicode="&#xa3;" horiz-adv-x="604" d="M162 27h-3q-17 -31 -60 -74q-39 -38 -75 -38q-23 0 -38.5 15.5t-15.5 38.5q0 24 24.5 48t64.5 39q20 5 29 23.5t27 96.5l4 17h-125l17 55h120q39 169 65 248.5t58 128.5q88 134 231 134q55 0 87 -20t32 -53q0 -24 -17.5 -42.5t-39.5 -18.5q-17 0 -35 12t-49 43 q-24 24 -39 24q-29 0 -46 -39t-43 -165q-35 -169 -67 -252h133l-17 -55h-137l-6 -11q-28 -65 -36 -80l-9 -17q38 6 58 6q59 0 110 -47q13 -12 45 -46q16 -19 38 -19q11 0 20 7t9 16q0 12 -31 55q-12 18 -12 47q0 23 15 37.5t40 14.5q33 0 51.5 -22.5t18.5 -63.5 q0 -67 -50 -111.5t-124 -44.5q-42 0 -70 15t-75 64q-19 20 -33 27t-34 7h-10z" />
<glyph unicode="&#xa4;" horiz-adv-x="652" d="M75 141l63 61q-34 56 -34 122q0 63 34 119l-63 63l67 68l64 -63q58 35 120 35q60 0 121 -35l63 63l67 -68l-63 -63q36 -60 36 -119q0 -64 -36 -122l63 -61l-67 -68l-63 62q-57 -35 -122 -35q-62 0 -120 35l-61 -62zM199 323q0 -53 37 -90.5t91 -37.5q53 0 90 37.5 t37 90.5t-37 90t-90 37q-54 0 -91 -37t-37 -90z" />
<glyph unicode="&#xa5;" horiz-adv-x="643" d="M170 0v46h15q43 0 60 15q36 27 36 91v65h-229v47h218l-77 141h-141v47h115q-4 8 -60 116q-5 9 -11 16t-11 11.5t-13 8.5t-12.5 6.5t-13.5 4.5t-12 2.5t-12 1.5l-8 1l-7 1v46h354v-46q-41 0 -61.5 -9t-20.5 -33q0 -17 16 -48l42 -79h146l40 73q11 20 11 38q0 26 -18.5 41 t-51.5 17v46h225v-46q-33 -8 -52 -25q-29 -27 -57 -76l-39 -68h119v-47h-147l-81 -141h228v-47h-229v-65q0 -67 19 -85q21 -21 61 -21h14v-46h-355zM408 316l49 89h-95z" />
<glyph unicode="&#xa6;" horiz-adv-x="575" d="M235 318v342h103v-342h-103zM235 171h103v-342h-103v342z" />
<glyph unicode="&#xa7;" horiz-adv-x="548" d="M49 -64q0 27 19.5 45.5t47.5 18.5q34 0 63 -26q14 -12 46 -52q30 -38 78 -38q28 0 45 13.5t17 36.5q0 32 -34.5 79.5t-128.5 146.5q-83 87 -108 119t-39 65q-22 54 -22 113q0 103 66 164.5t176 61.5q95 0 154.5 -32t59.5 -84q0 -30 -19 -50.5t-47 -20.5q-43 0 -75 42 q-56 73 -115 73q-17 0 -30.5 -13t-13.5 -29q0 -22 28 -59.5t112 -127.5q71 -77 95.5 -106.5t44.5 -64.5q45 -78 45 -153q0 -104 -65 -174q-66 -69 -186 -69q-94 0 -154 34t-60 87zM277 208q66 -70 91 -100t39 -56q27 -52 27 -91q0 -5 -1 -10q24 24 24 62q0 44 -25 96 q-37 74 -166 210q-81 84 -109 124t-43 94q-13 -34 -13 -57q0 -55 31 -102.5t145 -169.5z" />
<glyph unicode="&#xa8;" horiz-adv-x="500" d="M355 498q-31 0 -50.5 20t-19.5 51q0 28 21.5 49.5t48.5 21.5q29 0 50.5 -21.5t21.5 -50.5q0 -28 -21.5 -49t-50.5 -21zM143 498q-31 0 -50.5 20t-19.5 51q0 28 21.5 49.5t48.5 21.5q29 0 50.5 -21.5t21.5 -50.5q0 -28 -21.5 -49t-50.5 -21z" />
<glyph unicode="&#xa9;" horiz-adv-x="731" d="M27 329q0 140 99.5 239t239.5 99t239 -99t99 -239t-99 -239.5t-239 -99.5t-239.5 99.5t-99.5 239.5zM73 329q0 -121 85.5 -207t207.5 -86q121 0 206.5 86t85.5 207t-85.5 206.5t-206.5 85.5t-207 -85.5t-86 -206.5zM512 224v-34q-59 -61 -152 -61q-89 0 -145 54.5 t-56 140.5q0 91 59.5 150.5t150.5 59.5q36 0 73 -12.5t43 -12.5q19 0 23 24h18v-128h-18q-10 49 -41.5 77t-77.5 28q-57 0 -90 -46t-33 -132q0 -87 34.5 -131t87.5 -44q70 0 124 67z" />
<glyph unicode="&#xaa;" horiz-adv-x="357" d="M342 438l6 -28q-27 -39 -73 -39q-47 0 -64 39q-46 -39 -100 -39q-41 0 -66 16.5t-25 43.5q0 40 48.5 65t142.5 42v44q0 17 -11.5 27t-32.5 10q-27 0 -40 -16t-4 -43l-84 -25q-9 23 -9 39q0 74 153 74q69 0 94.5 -18.5t25.5 -57.5v-115q0 -37 39 -19zM211 439v72 q-50 -11 -71.5 -24.5t-21.5 -33.5q0 -17 10.5 -28t26.5 -11q24 0 56 25z" />
<glyph unicode="&#xab;" horiz-adv-x="453" d="M215 224l95 172h103l-95 -172l101 -176h-101zM136 48l-103 176l96 172h103l-96 -172l102 -176h-102z" />
<glyph unicode="&#xac;" horiz-adv-x="652" d="M61 389v98h531v-328h-98v230h-433z" />
<glyph unicode="&#xad;" horiz-adv-x="303" d="M33 178v103h236v-103h-236z" />
<glyph unicode="&#xae;" horiz-adv-x="731" d="M27 329q0 140 99.5 239t239.5 99t239 -99t99 -239t-99 -239.5t-239 -99.5t-239.5 99.5t-99.5 239.5zM73 329q0 -121 85.5 -207t207.5 -86q121 0 206.5 86t85.5 207t-85.5 206.5t-206.5 85.5t-207 -85.5t-86 -206.5zM177 139v16q29 -1 39.5 12.5t10.5 52.5v225 q0 38 -8.5 51t-33.5 13v16h204q65 0 101.5 -30t36.5 -74q0 -76 -85 -99l65 -120q22 -43 50 -47v-16h-115l-99 176h-21v-95q0 -41 10 -52.5t47 -12.5v-16h-202zM322 339h24q37 0 57.5 22.5t20.5 60.5q0 83 -85 83h-17v-166z" />
<glyph unicode="&#xaf;" horiz-adv-x="500" d="M98 530v79h305v-79h-305z" />
<glyph unicode="&#xb0;" horiz-adv-x="333" d="M167 400q-55 0 -94.5 39t-39.5 95q0 55 39.5 94t95.5 39q54 0 93 -39.5t39 -93.5q0 -55 -39 -94.5t-94 -39.5zM167 473q25 0 42.5 18t17.5 43q0 24 -17.5 42t-42.5 18t-43 -17.5t-18 -42.5q0 -26 18 -43.5t43 -17.5z" />
<glyph unicode="&#xb1;" d="M192 131v165h-162v92h162v164h96v-164h162v-92h-162v-165h-96zM30 0v92h420v-92h-420z" />
<glyph unicode="&#xb2;" horiz-adv-x="314" d="M10 266v67l85 86q73 73 73 130q0 32 -13.5 50.5t-36.5 18.5q-10 0 -21 -4.5t-11 -8.5q0 -2 8 -6q26 -10 26 -40q0 -22 -14 -36.5t-36 -14.5q-25 0 -41.5 17.5t-16.5 44.5q0 44 36 70.5t94 26.5q59 0 95 -28.5t36 -75.5q0 -35 -17 -62.5t-61 -62.5l-113 -92h131 q16 0 21.5 7t5.5 26v6h40v-119h-270z" />
<glyph unicode="&#xb3;" horiz-adv-x="314" d="M217 490l-19 -9q45 -16 65 -40.5t20 -62.5q0 -49 -40.5 -82t-102.5 -33q-55 0 -90 24t-35 62q0 22 16 38.5t38 16.5q21 0 36 -14t15 -33q0 -16 -11 -34q-5 -8 -5 -11q0 -8 21 -8q26 0 37 18t11 58t-9.5 56.5t-33.5 17.5q-29 1 -29 24q0 24 29 25q20 1 28 14.5t8 45.5 q0 63 -42 63q-16 0 -16 -7q0 -1 7 -12q9 -14 9 -31q0 -19 -13.5 -30t-36.5 -11q-25 0 -39 13.5t-14 36.5q0 36 34 59t88 23q57 0 93 -26t36 -68q0 -57 -55 -83z" />
<glyph unicode="&#xb4;" horiz-adv-x="500" d="M157 498l56 157h130l-137 -157h-49z" />
<glyph unicode="&#xb5;" horiz-adv-x="557" d="M68 88v197q0 46 -6.5 59.5t-33.5 22.5q-1 1 -8 3v55q6 1 86 4q61 3 97 7v-279q0 -80 55 -80q52 0 86 36v172q0 50 -9 64.5t-46 20.5v55q94 3 95 3l97 8v-302q0 -35 15 -51q14 -16 31 -18l10 -1v-50l-193 -28v68q-45 -38 -76 -53.5t-66 -15.5q-52 0 -88 33q1 -41 14 -90 t13 -65q0 -29 -15.5 -46t-41.5 -17q-51 0 -51 56q0 24 17.5 90t17.5 142z" />
<glyph unicode="&#xb6;" horiz-adv-x="528" d="M256 -192v416q-121 0 -189 61t-68 162q0 44 12.5 81t39.5 69.5t77 51t118 18.5h282v-21h-20q-35 0 -52.5 -15.5t-17.5 -52.5v-770h-47v823h-87v-823h-48z" />
<glyph unicode="&#xb7;" horiz-adv-x="482" d="M153 224q0 36 26 61.5t63 25.5q35 0 60.5 -26t25.5 -62q0 -37 -25.5 -62t-62.5 -25q-36 0 -61.5 25.5t-25.5 62.5z" />
<glyph unicode="&#xb8;" horiz-adv-x="500" d="M154 -159q35 -15 69 -15q28 0 44.5 10t16.5 27q0 32 -48 32q-14 0 -24 -1l-9 -1l37 115h41l-21 -78q30 0 50 -7q42 -17 42 -61q0 -36 -31.5 -59t-81.5 -23q-46 0 -102 28z" />
<glyph unicode="&#xb9;" horiz-adv-x="314" d="M69 267v37q30 0 41.5 7.5t11.5 27.5v188q0 25 -4 30t-23 5h-26v39q44 15 62.5 27.5t35.5 38.5h53v-328q0 -19 11 -26.5t40 -8.5v-37h-202z" />
<glyph unicode="&#xba;" horiz-adv-x="367" d="M180 371q-70 0 -113 36.5t-43 97.5q0 63 46 103t118 40q74 0 114 -43t40 -95q0 -63 -44.5 -101t-117.5 -38zM187 399q30 0 42.5 22.5t12.5 70.5q0 128 -63 128q-27 0 -40.5 -21t-13.5 -71q0 -129 62 -129z" />
<glyph unicode="&#xbb;" horiz-adv-x="454" d="M221 53l97 172l-102 175h102l102 -175l-95 -172h-104zM38 53l96 172l-101 175h101l103 -175l-95 -172h-104z" />
<glyph unicode="&#xbc;" horiz-adv-x="791" d="M190 0l346 667h86l-347 -667h-85zM69 267v37q30 0 41.5 7.5t11.5 27.5v188q0 25 -4 30t-23 5h-26v39q44 15 62.5 27.5t35.5 38.5h53v-328q0 -19 11 -26.5t40 -8.5v-37h-202zM487 91v47l179 262h64v-256h42v-53h-42v-5q0 -28 7 -36.5t34 -13.5v-36h-182v39h7q25 0 32.5 9 t7.5 38v5h-149zM543 144h93v133v8z" />
<glyph unicode="&#xbd;" horiz-adv-x="848" d="M190 0l346 667h86l-347 -667h-85zM69 267v37q30 0 41.5 7.5t11.5 27.5v188q0 25 -4 30t-23 5h-26v39q44 15 62.5 27.5t35.5 38.5h53v-328q0 -19 11 -26.5t40 -8.5v-37h-202zM544 0v67l85 86q73 74 73 129q0 32 -13.5 50.5t-36.5 18.5q-10 0 -21 -4.5t-11 -8.5q0 -2 8 -6 q26 -10 26 -39q0 -22 -14 -36.5t-36 -14.5q-25 0 -41.5 17.5t-16.5 43.5q0 44 35.5 70.5t94.5 26.5t95 -28.5t36 -75.5q0 -34 -17 -61t-61 -63l-113 -92h131q16 0 21.5 7t5.5 26v6h40v-119h-270z" />
<glyph unicode="&#xbe;" horiz-adv-x="798" d="M197 0l346 667h86l-347 -667h-85zM217 490l-19 -9q45 -16 65 -40.5t20 -62.5q0 -49 -40.5 -82t-102.5 -33q-55 0 -90 24t-35 62q0 22 16 38.5t38 16.5q21 0 36 -14t15 -33q0 -16 -11 -34q-5 -8 -5 -11q0 -8 21 -8q26 0 37 18t11 58t-9.5 56.5t-33.5 17.5q-29 1 -29 24 q0 24 29 25q20 1 28 14.5t8 45.5q0 63 -42 63q-16 0 -16 -7q0 -1 7 -12q9 -14 9 -31q0 -19 -13.5 -30t-36.5 -11q-25 0 -39 13.5t-14 36.5q0 36 34 59t88 23q57 0 93 -26t36 -68q0 -57 -55 -83zM494 91v47l180 262h64v-256h41v-53h-41v-5q0 -28 7 -36.5t34 -13.5v-36h-182 v39h7q25 0 32.5 9t7.5 38v5h-150zM551 144h93v133v8z" />
<glyph unicode="&#xbf;" horiz-adv-x="446" d="M277 337q-35 0 -60.5 26t-25.5 62q0 37 25.5 62t62.5 25q36 0 61.5 -25.5t25.5 -62.5q0 -36 -26 -61.5t-63 -25.5zM262 286h48q2 -20 3 -38.5t1 -19.5q4 -39 18 -92q3 -9 3 -16q0 -19 -21 -28q-8 -3 -65 -12q-123 -19 -123 -86q0 -31 27.5 -56t61.5 -25q25 0 71 15 q61 21 84 21q19 0 31 -17.5t12 -43.5q0 -35 -25 -50t-85 -15q-52 0 -107.5 22t-93.5 58q-34 32 -54.5 77.5t-20.5 89.5q0 61 43.5 96t144.5 58q28 6 35 14.5t11 39.5z" />
<glyph unicode="&#xc0;" horiz-adv-x="635" d="M316 717l-137 157h130l56 -157h-49zM-13 0v53q61 1 83 66l171 483l-24 65h179l198 -552q21 -56 68 -62v-53h-321v53q40 2 57 15.5t17 42.5q0 15 -6 32l-38 105h-194q-31 -108 -31 -130q0 -30 16.5 -45.5t54.5 -19.5v-53h-230zM196 308h153l-80 221z" />
<glyph unicode="&#xc1;" horiz-adv-x="635" d="M264 717l56 157h130l-137 -157h-49zM-13 0v53q61 1 83 66l171 483l-24 65h179l198 -552q21 -56 68 -62v-53h-321v53q40 2 57 15.5t17 42.5q0 15 -6 32l-38 105h-194q-31 -108 -31 -130q0 -30 16.5 -45.5t54.5 -19.5v-53h-230zM196 308h153l-80 221z" />
<glyph unicode="&#xc2;" horiz-adv-x="635" d="M186 717l80 156h101l80 -156h-67l-66 81l-58 -81h-70zM-13 0v53q61 1 83 66l171 483l-24 65h179l198 -552q21 -56 68 -62v-53h-321v53q40 2 57 15.5t17 42.5q0 15 -6 32l-38 105h-194q-31 -108 -31 -130q0 -30 16.5 -45.5t54.5 -19.5v-53h-230zM196 308h153l-80 221z" />
<glyph unicode="&#xc3;" horiz-adv-x="635" d="M168 733l-23 33q20 35 52 57.5t61 22.5t87 -21q44 -16 72 -16q26 0 49 24l23 -29q-51 -73 -119 -73q-16 0 -72 18q-43 15 -68 15q-38 0 -62 -31zM-13 0v53q61 1 83 66l171 483l-24 65h179l198 -552q21 -56 68 -62v-53h-321v53q40 2 57 15.5t17 42.5q0 15 -6 32l-38 105 h-194q-31 -108 -31 -130q0 -30 16.5 -45.5t54.5 -19.5v-53h-230zM196 308h153l-80 221z" />
<glyph unicode="&#xc4;" horiz-adv-x="635" d="M422 717q-31 0 -50.5 20t-19.5 51q0 28 21.5 49.5t48.5 21.5q29 0 50.5 -21.5t21.5 -50.5q0 -28 -21.5 -49t-50.5 -21zM210 717q-31 0 -50.5 20t-19.5 51q0 28 21.5 49.5t48.5 21.5q29 0 50.5 -21.5t21.5 -50.5q0 -28 -21.5 -49t-50.5 -21zM-13 0v53q61 1 83 66l171 483 l-24 65h179l198 -552q21 -56 68 -62v-53h-321v53q40 2 57 15.5t17 42.5q0 15 -6 32l-38 105h-194q-31 -108 -31 -130q0 -30 16.5 -45.5t54.5 -19.5v-53h-230zM196 308h153l-80 221z" />
<glyph unicode="&#xc5;" horiz-adv-x="635" d="M317 713q-38 0 -65.5 27.5t-27.5 66.5q0 37 27 64t63 27q40 0 68 -26.5t28 -64.5t-27.5 -66t-65.5 -28zM316 759q20 0 34 14.5t14 34.5q0 17 -14.5 31.5t-32.5 14.5t-33 -14.5t-15 -32.5q0 -19 14.5 -33.5t32.5 -14.5zM-13 0v53q61 1 83 66l171 483l-24 65h179l198 -552 q21 -56 68 -62v-53h-321v53q40 2 57 15.5t17 42.5q0 15 -6 32l-38 105h-194q-31 -108 -31 -130q0 -30 16.5 -45.5t54.5 -19.5v-53h-230zM196 308h153l-80 221z" />
<glyph unicode="&#xc6;" horiz-adv-x="940" d="M-13 0v53q31 1 48.5 16.5t30.5 50.5l144 378q17 43 17 69q0 25 -13 35.5t-45 12.5v52h635l39 -160h-65q-24 52 -86 81q-54 24 -167 24q-31 0 -58 -2l64 -248h101q80 0 80 60q0 9 -3 24h64l51 -216h-65q-12 35 -30 51q-29 22 -60 22h-124l48 -178q10 -36 14.5 -44.5 t16.5 -14.5q23 -10 63 -10q140 0 202 113h65l-35 -169h-562v53l9 1q34 1 48.5 11.5t14.5 34.5q0 14 -5 32l-44 171h-181l-40 -117q-15 -42 -15 -69q0 -29 13.5 -42.5t47.5 -20.5l5 -1v-53h-223zM220 362h145l-62 239z" />
<glyph unicode="&#xc7;" horiz-adv-x="687" d="M314 -107l31 99q-132 10 -214 78q-49 41 -76.5 105.5t-27.5 140.5q0 158 104.5 260.5t266.5 102.5q103 0 225 -53l19 -158h-73q-23 72 -71 114t-106 42q-87 0 -138 -78q-45 -71 -45 -214q0 -156 58 -224q51 -62 133 -62q69 0 117 42.5t68 122.5h76l-10 -160 q-141 -58 -264 -61l-16 -60q30 0 50 -7q42 -17 42 -61q0 -36 -31.5 -59t-81.5 -23q-46 0 -102 28l17 33q35 -15 69 -15q28 0 44.5 10t16.5 27q0 32 -48 32q-14 0 -24 -1z" />
<glyph unicode="&#xc8;" horiz-adv-x="639" d="M335 717l-137 157h130l56 -157h-49zM27 0v53h7q41 0 54 17t13 70v387q0 53 -13 70t-54 17h-7v53h571v-148h-62q-34 55 -74.5 75t-115.5 20h-77v-237h93q53 0 75.5 17t32.5 66h66v-224h-66q-11 41 -24 55q-29 31 -88 31h-89v-174q0 -49 25 -71.5t80 -22.5q119 0 196 119 h68l-32 -173h-579z" />
<glyph unicode="&#xc9;" horiz-adv-x="639" d="M245 717l56 157h130l-137 -157h-49zM27 0v53h7q41 0 54 17t13 70v387q0 53 -13 70t-54 17h-7v53h571v-148h-62q-34 55 -74.5 75t-115.5 20h-77v-237h93q53 0 75.5 17t32.5 66h66v-224h-66q-11 41 -24 55q-29 31 -88 31h-89v-174q0 -49 25 -71.5t80 -22.5q119 0 196 119 h68l-32 -173h-579z" />
<glyph unicode="&#xca;" horiz-adv-x="639" d="M188 717l80 156h101l80 -156h-67l-66 81l-58 -81h-70zM27 0v53h7q41 0 54 17t13 70v387q0 53 -13 70t-54 17h-7v53h571v-148h-62q-34 55 -74.5 75t-115.5 20h-77v-237h93q53 0 75.5 17t32.5 66h66v-224h-66q-11 41 -24 55q-29 31 -88 31h-89v-174q0 -49 25 -71.5 t80 -22.5q119 0 196 119h68l-32 -173h-579z" />
<glyph unicode="&#xcb;" horiz-adv-x="639" d="M424 717q-31 0 -50.5 20t-19.5 51q0 28 21.5 49.5t48.5 21.5q29 0 50.5 -21.5t21.5 -50.5q0 -28 -21.5 -49t-50.5 -21zM212 717q-31 0 -50.5 20t-19.5 51q0 28 21.5 49.5t48.5 21.5q29 0 50.5 -21.5t21.5 -50.5q0 -28 -21.5 -49t-50.5 -21zM27 0v53h7q41 0 54 17t13 70 v387q0 53 -13 70t-54 17h-7v53h571v-148h-62q-34 55 -74.5 75t-115.5 20h-77v-237h93q53 0 75.5 17t32.5 66h66v-224h-66q-11 41 -24 55q-29 31 -88 31h-89v-174q0 -49 25 -71.5t80 -22.5q119 0 196 119h68l-32 -173h-579z" />
<glyph unicode="&#xcc;" horiz-adv-x="373" d="M205 717l-137 157h130l56 -157h-49zM27 0v53h9q41 0 54 17t13 70v387q0 53 -13 70t-54 17h-9v53h320v-53h-9q-41 0 -54 -17t-13 -70v-387q0 -53 13 -70t54 -17h9v-53h-320z" />
<glyph unicode="&#xcd;" horiz-adv-x="373" d="M133 717l56 157h130l-137 -157h-49zM27 0v53h9q41 0 54 17t13 70v387q0 53 -13 70t-54 17h-9v53h320v-53h-9q-41 0 -54 -17t-13 -70v-387q0 -53 13 -70t54 -17h9v-53h-320z" />
<glyph unicode="&#xce;" horiz-adv-x="373" d="M55 717l80 156h101l80 -156h-67l-66 81l-58 -81h-70zM27 0v53h9q41 0 54 17t13 70v387q0 53 -13 70t-54 17h-9v53h320v-53h-9q-41 0 -54 -17t-13 -70v-387q0 -53 13 -70t54 -17h9v-53h-320z" />
<glyph unicode="&#xcf;" horiz-adv-x="373" d="M291 717q-31 0 -50.5 20t-19.5 51q0 28 21.5 49.5t48.5 21.5q29 0 50.5 -21.5t21.5 -50.5q0 -28 -21.5 -49t-50.5 -21zM79 717q-31 0 -50.5 20t-19.5 51q0 28 21.5 49.5t48.5 21.5q29 0 50.5 -21.5t21.5 -50.5q0 -28 -21.5 -49t-50.5 -21zM27 0v53h9q41 0 54 17t13 70 v387q0 53 -13 70t-54 17h-9v53h320v-53h-9q-41 0 -54 -17t-13 -70v-387q0 -53 13 -70t54 -17h9v-53h-320z" />
<glyph unicode="&#xd0;" horiz-adv-x="748" d="M27 0v53h9q41 0 54 17t13 70v182h-76v57h76v148q0 53 -13 70t-54 17h-9v53h310q115 0 168 -17q103 -31 160.5 -114t57.5 -198q0 -107 -53 -188t-147 -120q-65 -28 -132 -29q-17 -1 -110 -1h-254zM273 125q0 -26 23 -49q21 -21 62 -21q84 0 134 73t50 195q0 153 -80 236 q-56 56 -163 56q-14 0 -26 -1v-235h190v-57h-190v-197z" />
<glyph unicode="&#xd1;" horiz-adv-x="769" d="M235 733l-23 33q20 35 52 57.5t61 22.5t87 -21q44 -16 72 -16q26 0 49 24l23 -29q-51 -73 -119 -73q-16 0 -72 18q-43 15 -68 15q-38 0 -62 -31zM31 0v53h26q41 0 54 17t13 70v387q0 53 -13 70t-54 17h-30v53h216l363 -402v262q0 53 -13 70t-54 17h-32v53h236v-53h-14 q-41 0 -54 -17t-13 -70v-239q0 -157 20 -288h-55l-449 489v-349q0 -53 13 -70t54 -17h41v-53h-255z" />
<glyph unicode="&#xd2;" horiz-adv-x="751" d="M400 717l-137 157h130l56 -157h-49zM27 318q0 154 102.5 257.5t254.5 103.5q155 0 253 -103q87 -90 87 -237q0 -150 -103.5 -249.5t-258.5 -99.5q-146 0 -240.5 92.5t-94.5 235.5zM382 44q77 0 120 71.5t43 198.5q0 145 -45.5 226.5t-125.5 81.5q-78 0 -119.5 -72 t-41.5 -208q0 -143 44 -220.5t125 -77.5z" />
<glyph unicode="&#xd3;" horiz-adv-x="751" d="M301 717l56 157h130l-137 -157h-49zM27 318q0 154 102.5 257.5t254.5 103.5q155 0 253 -103q87 -90 87 -237q0 -150 -103.5 -249.5t-258.5 -99.5q-146 0 -240.5 92.5t-94.5 235.5zM382 44q77 0 120 71.5t43 198.5q0 145 -45.5 226.5t-125.5 81.5q-78 0 -119.5 -72 t-41.5 -208q0 -143 44 -220.5t125 -77.5z" />
<glyph unicode="&#xd4;" horiz-adv-x="751" d="M244 717l80 156h101l80 -156h-67l-66 81l-58 -81h-70zM27 318q0 154 102.5 257.5t254.5 103.5q155 0 253 -103q87 -90 87 -237q0 -150 -103.5 -249.5t-258.5 -99.5q-146 0 -240.5 92.5t-94.5 235.5zM382 44q77 0 120 71.5t43 198.5q0 145 -45.5 226.5t-125.5 81.5 q-78 0 -119.5 -72t-41.5 -208q0 -143 44 -220.5t125 -77.5z" />
<glyph unicode="&#xd5;" horiz-adv-x="751" d="M226 733l-23 33q20 35 52 57.5t61 22.5t87 -21q44 -16 72 -16q26 0 49 24l23 -29q-51 -73 -119 -73q-16 0 -72 18q-43 15 -68 15q-38 0 -62 -31zM27 318q0 154 102.5 257.5t254.5 103.5q155 0 253 -103q87 -90 87 -237q0 -150 -103.5 -249.5t-258.5 -99.5 q-146 0 -240.5 92.5t-94.5 235.5zM382 44q77 0 120 71.5t43 198.5q0 145 -45.5 226.5t-125.5 81.5q-78 0 -119.5 -72t-41.5 -208q0 -143 44 -220.5t125 -77.5z" />
<glyph unicode="&#xd6;" horiz-adv-x="751" d="M480 717q-31 0 -50.5 20t-19.5 51q0 28 21.5 49.5t48.5 21.5q29 0 50.5 -21.5t21.5 -50.5q0 -28 -21.5 -49t-50.5 -21zM268 717q-31 0 -50.5 20t-19.5 51q0 28 21.5 49.5t48.5 21.5q29 0 50.5 -21.5t21.5 -50.5q0 -28 -21.5 -49t-50.5 -21zM27 318q0 154 102.5 257.5 t254.5 103.5q155 0 253 -103q87 -90 87 -237q0 -150 -103.5 -249.5t-258.5 -99.5q-146 0 -240.5 92.5t-94.5 235.5zM382 44q77 0 120 71.5t43 198.5q0 145 -45.5 226.5t-125.5 81.5q-78 0 -119.5 -72t-41.5 -208q0 -143 44 -220.5t125 -77.5z" />
<glyph unicode="&#xd7;" d="M107 137l-65 63l131 133l-133 131l68 69l131 -131l131 131l65 -63l-130 -132l135 -131l-67 -70l-134 132z" />
<glyph unicode="&#xd8;" horiz-adv-x="753" d="M13 7l93 93q-79 97 -79 221q0 154 102.5 256t256.5 102q128 0 225 -78l95 94l33 -32l-93 -94q79 -94 79 -222q0 -158 -101.5 -257.5t-262.5 -99.5q-129 0 -220 77l-94 -93zM220 213l300 297q-40 115 -144 115q-79 0 -122 -67q-19 -31 -32 -89t-13 -115q0 -99 11 -141z M234 160q18 -44 47 -76q40 -44 98 -44q83 0 128 66t45 190q0 83 -17 163z" />
<glyph unicode="&#xd9;" horiz-adv-x="709" d="M398 717l-137 157h130l56 -157h-49zM628 527v-250q0 -88 -14 -134t-51 -81q-76 -72 -211 -72q-160 0 -230 89q-24 31 -33 65t-9 95v288q0 53 -13 70t-54 17h-6v53h327v-53h-16q-41 0 -54 -17t-13 -70v-250q0 -66 5.5 -96t20.5 -53q36 -53 125 -53q106 0 151 80 q20 36 20 154v218q0 53 -13 70t-54 17h-30v53h227v-53h-8q-41 0 -54 -17t-13 -70z" />
<glyph unicode="&#xda;" horiz-adv-x="709" d="M291 717l56 157h130l-137 -157h-49zM628 527v-250q0 -88 -14 -134t-51 -81q-76 -72 -211 -72q-160 0 -230 89q-24 31 -33 65t-9 95v288q0 53 -13 70t-54 17h-6v53h327v-53h-16q-41 0 -54 -17t-13 -70v-250q0 -66 5.5 -96t20.5 -53q36 -53 125 -53q106 0 151 80 q20 36 20 154v218q0 53 -13 70t-54 17h-30v53h227v-53h-8q-41 0 -54 -17t-13 -70z" />
<glyph unicode="&#xdb;" horiz-adv-x="709" d="M246 717l80 156h101l80 -156h-67l-66 81l-58 -81h-70zM628 527v-250q0 -88 -14 -134t-51 -81q-76 -72 -211 -72q-160 0 -230 89q-24 31 -33 65t-9 95v288q0 53 -13 70t-54 17h-6v53h327v-53h-16q-41 0 -54 -17t-13 -70v-250q0 -66 5.5 -96t20.5 -53q36 -53 125 -53 q106 0 151 80q20 36 20 154v218q0 53 -13 70t-54 17h-30v53h227v-53h-8q-41 0 -54 -17t-13 -70z" />
<glyph unicode="&#xdc;" horiz-adv-x="709" d="M459 717q-31 0 -50.5 20t-19.5 51q0 28 21.5 49.5t48.5 21.5q29 0 50.5 -21.5t21.5 -50.5q0 -28 -21.5 -49t-50.5 -21zM247 717q-31 0 -50.5 20t-19.5 51q0 28 21.5 49.5t48.5 21.5q29 0 50.5 -21.5t21.5 -50.5q0 -28 -21.5 -49t-50.5 -21zM628 527v-250q0 -88 -14 -134 t-51 -81q-76 -72 -211 -72q-160 0 -230 89q-24 31 -33 65t-9 95v288q0 53 -13 70t-54 17h-6v53h327v-53h-16q-41 0 -54 -17t-13 -70v-250q0 -66 5.5 -96t20.5 -53q36 -53 125 -53q106 0 151 80q20 36 20 154v218q0 53 -13 70t-54 17h-30v53h227v-53h-8q-41 0 -54 -17 t-13 -70z" />
<glyph unicode="&#xdd;" horiz-adv-x="620" d="M270 717l56 157h130l-137 -157h-49zM155 0v53h14q41 0 54 17t13 70v110l-175 308q-20 34 -33 44t-41 12v53h325v-53h-15q-52 0 -52 -35q0 -20 24 -66l93 -173l105 173q21 36 21 54q0 43 -66 47v53h212v-53q-25 -4 -46.5 -26t-58.5 -80l-151 -237v-131q0 -53 13 -70 t54 -17h21v-53h-311z" />
<glyph unicode="&#xde;" horiz-adv-x="636" d="M27 0v53h7q41 0 54 17t13 70v387q0 53 -13 70t-54 17h-7v53h320v-53h-9q-41 0 -54 -17t-13 -70v-8h81q103 0 132.5 -4.5t58.5 -21.5q41 -25 64 -67t23 -91q0 -59 -33.5 -104.5t-89.5 -64.5q-67 -21 -151 -21q-53 0 -53 10v39q0 10 7 13q3 1 35 1q105 0 105 113 q0 103 -71 133q-9 4 -16.5 5.5t-13 2t-25 1.5t-35.5 2l-16 1v-326q0 -53 13 -70t54 -17h8v-53h-321z" />
<glyph unicode="&#xdf;" horiz-adv-x="620" d="M20 0v50l30 1q6 1 17.5 8t15.5 13q13 16 13 48v316q0 105 61 171.5t156 66.5q60 0 110 -26.5t73 -71.5q16 -30 20.5 -60.5t4.5 -116.5v-17q-38 12 -69 12q-18 0 -30 -9.5t-12 -24.5t14.5 -28t60.5 -41q66 -38 90.5 -69.5t24.5 -78.5q0 -70 -45 -111.5t-122 -41.5 q-37 0 -54 4.5t-81 31.5q-1 0 -3 1t-6 2.5t-8 2.5v121h60q2 -44 25 -72.5t57 -28.5q26 0 42.5 12t16.5 31q0 20 -13 33q-5 5 -58 36q-58 33 -88 58q-41 36 -41 93q0 47 27 78.5t76 42.5q0 96 -17 140q-17 46 -55 46q-19 0 -36 -13t-26 -33q-20 -45 -20 -140v-436h-211z" />
<glyph unicode="&#xe0;" horiz-adv-x="510" d="M259 498l-137 157h130l56 -157h-49zM480 103l10 -53q-54 -60 -111 -60q-30 0 -49.5 14t-36.5 46q-57 -60 -140 -60q-58 0 -95.5 31.5t-37.5 80.5q0 58 51 91q27 18 100 41l117 37v41q0 81 -61 81q-24 0 -39.5 -13.5t-15.5 -35.5q0 -17 7 -45l-124 -40q-20 31 -20 63 q0 56 59 92t151 36q105 0 149 -42q30 -27 30 -100v-187q0 -38 21 -38q11 0 35 20zM278 212l-30 -12q-44 -17 -62.5 -34.5t-18.5 -39.5q0 -20 16.5 -33t41.5 -13q27 0 63 23v113z" />
<glyph unicode="&#xe1;" horiz-adv-x="510" d="M162 498l56 157h130l-137 -157h-49zM480 103l10 -53q-54 -60 -111 -60q-30 0 -49.5 14t-36.5 46q-57 -60 -140 -60q-58 0 -95.5 31.5t-37.5 80.5q0 58 51 91q27 18 100 41l117 37v41q0 81 -61 81q-24 0 -39.5 -13.5t-15.5 -35.5q0 -17 7 -45l-124 -40q-20 31 -20 63 q0 56 59 92t151 36q105 0 149 -42q30 -27 30 -100v-187q0 -38 21 -38q11 0 35 20zM278 212l-30 -12q-44 -17 -62.5 -34.5t-18.5 -39.5q0 -20 16.5 -33t41.5 -13q27 0 63 23v113z" />
<glyph unicode="&#xe2;" horiz-adv-x="510" d="M120 498l80 156h101l80 -156h-67l-66 81l-58 -81h-70zM480 103l10 -53q-54 -60 -111 -60q-30 0 -49.5 14t-36.5 46q-57 -60 -140 -60q-58 0 -95.5 31.5t-37.5 80.5q0 58 51 91q27 18 100 41l117 37v41q0 81 -61 81q-24 0 -39.5 -13.5t-15.5 -35.5q0 -17 7 -45l-124 -40 q-20 31 -20 63q0 56 59 92t151 36q105 0 149 -42q30 -27 30 -100v-187q0 -38 21 -38q11 0 35 20zM278 212l-30 -12q-44 -17 -62.5 -34.5t-18.5 -39.5q0 -20 16.5 -33t41.5 -13q27 0 63 23v113z" />
<glyph unicode="&#xe3;" horiz-adv-x="510" d="M106 514l-23 33q20 35 52 57.5t61 22.5t87 -21q44 -16 72 -16q26 0 49 24l23 -29q-51 -73 -119 -73q-16 0 -72 18q-43 15 -68 15q-38 0 -62 -31zM480 103l10 -53q-54 -60 -111 -60q-30 0 -49.5 14t-36.5 46q-57 -60 -140 -60q-58 0 -95.5 31.5t-37.5 80.5q0 58 51 91 q27 18 100 41l117 37v41q0 81 -61 81q-24 0 -39.5 -13.5t-15.5 -35.5q0 -17 7 -45l-124 -40q-20 31 -20 63q0 56 59 92t151 36q105 0 149 -42q30 -27 30 -100v-187q0 -38 21 -38q11 0 35 20zM278 212l-30 -12q-44 -17 -62.5 -34.5t-18.5 -39.5q0 -20 16.5 -33t41.5 -13 q27 0 63 23v113z" />
<glyph unicode="&#xe4;" horiz-adv-x="510" d="M360 498q-31 0 -50.5 20t-19.5 51q0 28 21.5 49.5t48.5 21.5q29 0 50.5 -21.5t21.5 -50.5q0 -28 -21.5 -49t-50.5 -21zM148 498q-31 0 -50.5 20t-19.5 51q0 28 21.5 49.5t48.5 21.5q29 0 50.5 -21.5t21.5 -50.5q0 -28 -21.5 -49t-50.5 -21zM480 103l10 -53 q-54 -60 -111 -60q-30 0 -49.5 14t-36.5 46q-57 -60 -140 -60q-58 0 -95.5 31.5t-37.5 80.5q0 58 51 91q27 18 100 41l117 37v41q0 81 -61 81q-24 0 -39.5 -13.5t-15.5 -35.5q0 -17 7 -45l-124 -40q-20 31 -20 63q0 56 59 92t151 36q105 0 149 -42q30 -27 30 -100v-187 q0 -38 21 -38q11 0 35 20zM278 212l-30 -12q-44 -17 -62.5 -34.5t-18.5 -39.5q0 -20 16.5 -33t41.5 -13q27 0 63 23v113z" />
<glyph unicode="&#xe5;" horiz-adv-x="510" d="M255 485q-38 0 -65.5 27.5t-27.5 66.5q0 37 27 64t63 27q40 0 68 -26.5t28 -64.5t-27.5 -66t-65.5 -28zM254 531q20 0 34 14.5t14 34.5q0 17 -14.5 31.5t-32.5 14.5t-33 -14.5t-15 -32.5q0 -19 14.5 -33.5t32.5 -14.5zM480 103l10 -53q-54 -60 -111 -60q-30 0 -49.5 14 t-36.5 46q-57 -60 -140 -60q-58 0 -95.5 31.5t-37.5 80.5q0 58 51 91q27 18 100 41l117 37v41q0 81 -61 81q-24 0 -39.5 -13.5t-15.5 -35.5q0 -17 7 -45l-124 -40q-20 31 -20 63q0 56 59 92t151 36q105 0 149 -42q30 -27 30 -100v-187q0 -38 21 -38q11 0 35 20zM278 212 l-30 -12q-44 -17 -62.5 -34.5t-18.5 -39.5q0 -20 16.5 -33t41.5 -13q27 0 63 23v113z" />
<glyph unicode="&#xe6;" horiz-adv-x="690" d="M636 139l34 -34q-87 -115 -209 -115q-93 0 -163 71q-99 -71 -158 -71q-49 0 -84.5 34t-35.5 80q0 41 26.5 69t85.5 50q69 26 141 38v84q0 52 -50 52q-25 0 -40 -16t-15 -42q0 -15 9 -36l-131 -42q-12 28 -12 52q0 62 52.5 99.5t139.5 37.5q82 0 131 -36q49 36 123 36 q80 0 133 -51t57 -130l-266 -33q8 -67 20 -91q27 -54 94 -54q54 0 118 48zM407 281l118 15v9q0 43 -16 68.5t-43 25.5q-60 0 -60 -105q0 -7 1 -13zM273 105v106q-20 -6 -64 -29q-45 -22 -45 -53q0 -22 13.5 -37.5t32.5 -15.5q21 0 63 29z" />
<glyph unicode="&#xe7;" horiz-adv-x="438" d="M165 -107l32 99q-79 11 -128 70t-49 146q0 107 66 174.5t171 67.5q72 0 120 -34t48 -86q0 -28 -17.5 -47t-43.5 -19q-27 0 -46 20.5t-26 57.5q-9 52 -55 52q-38 0 -59.5 -34.5t-21.5 -96.5q0 -74 37 -121.5t95 -47.5q44 0 96 35l36 -35q-75 -98 -182 -103l-16 -61 q30 0 50 -7q42 -17 42 -61q0 -36 -31.5 -59t-81.5 -23q-46 0 -102 28l17 33q35 -15 69 -15q28 0 44.5 10t16.5 27q0 32 -48 32q-14 0 -24 -1z" />
<glyph unicode="&#xe8;" horiz-adv-x="452" d="M251 498l-137 157h130l56 -157h-49zM394 139l38 -37q-20 -28 -52 -54q-40 -33 -72.5 -45.5t-76.5 -12.5q-92 0 -151.5 63t-59.5 161q0 80 43 144q61 92 172 92q117 0 168 -95q22 -38 29 -108h-273q5 -66 44.5 -109t94.5 -43q25 0 42.5 8t53.5 36zM159 293h122 q-3 98 -62 98q-34 0 -52 -51q-4 -15 -8 -47z" />
<glyph unicode="&#xe9;" horiz-adv-x="452" d="M163 498l56 157h130l-137 -157h-49zM394 139l38 -37q-20 -28 -52 -54q-40 -33 -72.5 -45.5t-76.5 -12.5q-92 0 -151.5 63t-59.5 161q0 80 43 144q61 92 172 92q117 0 168 -95q22 -38 29 -108h-273q5 -66 44.5 -109t94.5 -43q25 0 42.5 8t53.5 36zM159 293h122 q-3 98 -62 98q-34 0 -52 -51q-4 -15 -8 -47z" />
<glyph unicode="&#xea;" horiz-adv-x="452" d="M105 498l80 156h101l80 -156h-67l-66 81l-58 -81h-70zM394 139l38 -37q-20 -28 -52 -54q-40 -33 -72.5 -45.5t-76.5 -12.5q-92 0 -151.5 63t-59.5 161q0 80 43 144q61 92 172 92q117 0 168 -95q22 -38 29 -108h-273q5 -66 44.5 -109t94.5 -43q25 0 42.5 8t53.5 36z M159 293h122q-3 98 -62 98q-34 0 -52 -51q-4 -15 -8 -47z" />
<glyph unicode="&#xeb;" horiz-adv-x="452" d="M339 498q-31 0 -50.5 20t-19.5 51q0 28 21.5 49.5t48.5 21.5q29 0 50.5 -21.5t21.5 -50.5q0 -28 -21.5 -49t-50.5 -21zM127 498q-31 0 -50.5 20t-19.5 51q0 28 21.5 49.5t48.5 21.5q29 0 50.5 -21.5t21.5 -50.5q0 -28 -21.5 -49t-50.5 -21zM394 139l38 -37 q-20 -28 -52 -54q-40 -33 -72.5 -45.5t-76.5 -12.5q-92 0 -151.5 63t-59.5 161q0 80 43 144q61 92 172 92q117 0 168 -95q22 -38 29 -108h-273q5 -66 44.5 -109t94.5 -43q25 0 42.5 8t53.5 36zM159 293h122q-3 98 -62 98q-34 0 -52 -51q-4 -15 -8 -47z" />
<glyph unicode="&#xec;" horiz-adv-x="295" d="M164 498l-137 157h130l56 -157h-49zM26 0v50l15 1q6 1 17.5 8t15.5 13q13 16 13 48v202l-67 36v35l18 6q72 23 147 49h38v-328q0 -59 46 -69l5 -1v-50h-248z" />
<glyph unicode="&#xed;" horiz-adv-x="295" d="M90 498l56 157h130l-137 -157h-49zM26 0v50l15 1q6 1 17.5 8t15.5 13q13 16 13 48v202l-67 36v35l18 6q72 23 147 49h38v-328q0 -59 46 -69l5 -1v-50h-248z" />
<glyph unicode="&#xee;" horiz-adv-x="295" d="M16 498l80 156h101l80 -156h-67l-66 81l-58 -81h-70zM26 0v50l15 1q6 1 17.5 8t15.5 13q13 16 13 48v202l-67 36v35l18 6q72 23 147 49h38v-328q0 -59 46 -69l5 -1v-50h-248z" />
<glyph unicode="&#xef;" horiz-adv-x="295" d="M252 498q-31 0 -50.5 20t-19.5 51q0 28 21.5 49.5t48.5 21.5q29 0 50.5 -21.5t21.5 -50.5q0 -28 -21.5 -49t-50.5 -21zM40 498q-31 0 -50.5 20t-19.5 51q0 28 21.5 49.5t48.5 21.5q29 0 50.5 -21.5t21.5 -50.5q0 -28 -21.5 -49t-50.5 -21zM26 0v50l15 1q6 1 17.5 8 t15.5 13q13 16 13 48v202l-67 36v35l18 6q72 23 147 49h38v-328q0 -59 46 -69l5 -1v-50h-248z" />
<glyph unicode="&#xf0;" horiz-adv-x="504" d="M459 633l-98 -48q123 -130 123 -366q0 -100 -65 -164.5t-165 -64.5q-104 0 -169 63.5t-65 163.5q0 102 65.5 167.5t167.5 65.5q27 0 50 -17h4q-8 46 -43 104l-135 -67l-21 45l127 63q-31 42 -78 71l64 31q56 -23 100 -59l117 59zM203 88q12 -25 25 -35t32 -10 q67 0 67 150q0 102 -29 163q-18 38 -50 38q-34 0 -52.5 -41.5t-18.5 -116.5q0 -91 26 -148z" />
<glyph unicode="&#xf1;" horiz-adv-x="566" d="M134 514l-23 33q20 35 52 57.5t61 22.5t87 -21q44 -16 72 -16q26 0 49 24l23 -29q-51 -73 -119 -73q-16 0 -72 18q-43 15 -68 15q-38 0 -62 -31zM20 0v50l15 1q6 1 17.5 8t15.5 13q13 16 13 48v211l-61 33v35q39 7 150 50h47v-66q33 30 72.5 48.5t71.5 18.5 q55 0 93.5 -39.5t38.5 -96.5v-194q0 -63 46 -69l7 -1v-50h-243v50l9 1q18 2 33 21q13 16 13 48v179q0 28 -16.5 44t-45.5 16q-42 0 -79 -28v-211q0 -27 7 -40t27 -24l11 -6v-50h-242z" />
<glyph unicode="&#xf2;" horiz-adv-x="504" d="M269 498l-137 157h130l56 -157h-49zM20 217q0 102 65.5 167.5t167.5 65.5q110 0 177 -76q54 -61 54 -155q0 -100 -65 -164.5t-165 -64.5q-104 0 -169 63.5t-65 163.5zM203 88q12 -25 25 -35t32 -10q67 0 67 150q0 102 -29 163q-18 38 -50 38q-34 0 -52.5 -41.5 t-18.5 -116.5q0 -91 26 -148z" />
<glyph unicode="&#xf3;" horiz-adv-x="504" d="M180 498l56 157h130l-137 -157h-49zM20 217q0 102 65.5 167.5t167.5 65.5q110 0 177 -76q54 -61 54 -155q0 -100 -65 -164.5t-165 -64.5q-104 0 -169 63.5t-65 163.5zM203 88q12 -25 25 -35t32 -10q67 0 67 150q0 102 -29 163q-18 38 -50 38q-34 0 -52.5 -41.5 t-18.5 -116.5q0 -91 26 -148z" />
<glyph unicode="&#xf4;" horiz-adv-x="504" d="M121 498l80 156h101l80 -156h-67l-66 81l-58 -81h-70zM20 217q0 102 65.5 167.5t167.5 65.5q110 0 177 -76q54 -61 54 -155q0 -100 -65 -164.5t-165 -64.5q-104 0 -169 63.5t-65 163.5zM203 88q12 -25 25 -35t32 -10q67 0 67 150q0 102 -29 163q-18 38 -50 38 q-34 0 -52.5 -41.5t-18.5 -116.5q0 -91 26 -148z" />
<glyph unicode="&#xf5;" horiz-adv-x="504" d="M103 514l-23 33q20 35 52 57.5t61 22.5t87 -21q44 -16 72 -16q26 0 49 24l23 -29q-51 -73 -119 -73q-16 0 -72 18q-43 15 -68 15q-38 0 -62 -31zM20 217q0 102 65.5 167.5t167.5 65.5q110 0 177 -76q54 -61 54 -155q0 -100 -65 -164.5t-165 -64.5q-104 0 -169 63.5 t-65 163.5zM203 88q12 -25 25 -35t32 -10q67 0 67 150q0 102 -29 163q-18 38 -50 38q-34 0 -52.5 -41.5t-18.5 -116.5q0 -91 26 -148z" />
<glyph unicode="&#xf6;" horiz-adv-x="504" d="M357 498q-31 0 -50.5 20t-19.5 51q0 28 21.5 49.5t48.5 21.5q29 0 50.5 -21.5t21.5 -50.5q0 -28 -21.5 -49t-50.5 -21zM145 498q-31 0 -50.5 20t-19.5 51q0 28 21.5 49.5t48.5 21.5q29 0 50.5 -21.5t21.5 -50.5q0 -28 -21.5 -49t-50.5 -21zM20 217q0 102 65.5 167.5 t167.5 65.5q110 0 177 -76q54 -61 54 -155q0 -100 -65 -164.5t-165 -64.5q-104 0 -169 63.5t-65 163.5zM203 88q12 -25 25 -35t32 -10q67 0 67 150q0 102 -29 163q-18 38 -50 38q-34 0 -52.5 -41.5t-18.5 -116.5q0 -91 26 -148z" />
<glyph unicode="&#xf7;" d="M239 422q-26 0 -43.5 18t-17.5 44q0 24 18 42t43 18t43 -18t18 -43t-18 -43t-43 -18zM30 295v92h420v-92h-420zM178 201q0 24 18 42t43 18t43 -17.5t18 -43.5q0 -25 -18 -43t-43 -18t-43 18t-18 44z" />
<glyph unicode="&#xf8;" horiz-adv-x="484" d="M0 8l63 63q-28 48 -37 75t-9 65q0 105 63.5 172t163.5 67q85 0 149 -56l64 64l27 -28l-65 -66q20 -23 33.5 -65.5t13.5 -83.5q0 -95 -64.5 -160t-159.5 -65q-91 0 -151 54l-64 -63zM163 169l147 144q-8 38 -28.5 60t-46.5 22q-36 0 -56.5 -38t-20.5 -103q0 -40 5 -85z M171 122q19 -81 74 -81q75 0 75 159q0 30 -3 65z" />
<glyph unicode="&#xf9;" horiz-adv-x="557" d="M276 498l-137 157h130l56 -157h-49zM68 133v152q0 46 -6.5 59.5t-33.5 22.5q-1 1 -8 3v55q6 1 86 4q61 3 97 7v-279q0 -80 55 -80q52 0 86 36v172q0 50 -9 64.5t-46 20.5v55q94 3 95 3l97 8v-302q0 -35 15 -51q14 -16 31 -18l10 -1v-50l-193 -28v68q-45 -38 -76 -53.5 t-66 -15.5q-59 0 -96.5 41.5t-37.5 106.5z" />
<glyph unicode="&#xfa;" horiz-adv-x="557" d="M195 498l56 157h130l-137 -157h-49zM68 133v152q0 46 -6.5 59.5t-33.5 22.5q-1 1 -8 3v55q6 1 86 4q61 3 97 7v-279q0 -80 55 -80q52 0 86 36v172q0 50 -9 64.5t-46 20.5v55q94 3 95 3l97 8v-302q0 -35 15 -51q14 -16 31 -18l10 -1v-50l-193 -28v68q-45 -38 -76 -53.5 t-66 -15.5q-59 0 -96.5 41.5t-37.5 106.5z" />
<glyph unicode="&#xfb;" horiz-adv-x="557" d="M145 498l80 156h101l80 -156h-67l-66 81l-58 -81h-70zM68 133v152q0 46 -6.5 59.5t-33.5 22.5q-1 1 -8 3v55q6 1 86 4q61 3 97 7v-279q0 -80 55 -80q52 0 86 36v172q0 50 -9 64.5t-46 20.5v55q94 3 95 3l97 8v-302q0 -35 15 -51q14 -16 31 -18l10 -1v-50l-193 -28v68 q-45 -38 -76 -53.5t-66 -15.5q-59 0 -96.5 41.5t-37.5 106.5z" />
<glyph unicode="&#xfc;" horiz-adv-x="557" d="M383 498q-31 0 -50.5 20t-19.5 51q0 28 21.5 49.5t48.5 21.5q29 0 50.5 -21.5t21.5 -50.5q0 -28 -21.5 -49t-50.5 -21zM171 498q-31 0 -50.5 20t-19.5 51q0 28 21.5 49.5t48.5 21.5q29 0 50.5 -21.5t21.5 -50.5q0 -28 -21.5 -49t-50.5 -21zM68 133v152q0 46 -6.5 59.5 t-33.5 22.5q-1 1 -8 3v55q6 1 86 4q61 3 97 7v-279q0 -80 55 -80q52 0 86 36v172q0 50 -9 64.5t-46 20.5v55q94 3 95 3l97 8v-302q0 -35 15 -51q14 -16 31 -18l10 -1v-50l-193 -28v68q-45 -38 -76 -53.5t-66 -15.5q-59 0 -96.5 41.5t-37.5 106.5z" />
<glyph unicode="&#xfd;" horiz-adv-x="460" d="M197 498l56 157h130l-137 -157h-49zM405 327l-158 -371q-52 -121 -149 -121q-40 0 -66.5 23t-26.5 58q0 27 18 46.5t43 19.5q18 0 28.5 -7t20.5 -25q9 -19 30 -19q38 0 61 62l-168 346q-20 42 -51 47v50h238v-50q-43 -5 -43 -30q0 -9 9 -29l83 -170l49 115q17 41 17 65 q0 40 -52 49v50h172v-50q-33 -6 -55 -59z" />
<glyph unicode="&#xfe;" horiz-adv-x="560" d="M82 -47v593l-62 33v38q17 2 72 19.5t86 30.5h41v-298q29 37 69.5 59t80.5 22q77 0 124 -58.5t47 -152.5q0 -107 -67 -175.5t-172 -68.5q-42 0 -82 12v-54q0 -35 15 -51q13 -15 31 -18l39 -1v-50h-284v50l16 1q6 1 17.5 8t15.5 13q13 16 13 48zM219 168q0 -64 18 -91.5 t60 -27.5q50 0 77 36.5t27 104.5q0 71 -29.5 112.5t-78.5 41.5q-44 0 -74 -30v-146z" />
<glyph unicode="&#xff;" horiz-adv-x="460" d="M335 498q-31 0 -50.5 20t-19.5 51q0 28 21.5 49.5t48.5 21.5q29 0 50.5 -21.5t21.5 -50.5q0 -28 -21.5 -49t-50.5 -21zM123 498q-31 0 -50.5 20t-19.5 51q0 28 21.5 49.5t48.5 21.5q29 0 50.5 -21.5t21.5 -50.5q0 -28 -21.5 -49t-50.5 -21zM405 327l-158 -371 q-52 -121 -149 -121q-40 0 -66.5 23t-26.5 58q0 27 18 46.5t43 19.5q18 0 28.5 -7t20.5 -25q9 -19 30 -19q38 0 61 62l-168 346q-20 42 -51 47v50h238v-50q-43 -5 -43 -30q0 -9 9 -29l83 -170l49 115q17 41 17 65q0 40 -52 49v50h172v-50q-33 -6 -55 -59z" />
<glyph unicode="&#x152;" horiz-adv-x="984" d="M506 0l-32 1q-15 0 -31 -1q-52 -4 -93 -4q-140 0 -231.5 90t-91.5 228q0 81 32.5 157t88.5 127q84 75 207 75q29 0 90 -5q8 -1 25 -1h472v-151h-66q-38 62 -81.5 81.5t-141.5 16.5l-122 -4q61 -38 98.5 -103t37.5 -132q80 1 109.5 17.5t37.5 63.5h69v-220h-69 q-6 49 -42 74q-19 13 -105 12q-8 -169 -156 -269h113q149 0 204 33q56 33 87 86h70l-27 -172h-452zM359 52q67 0 102 64.5t35 188.5q0 143 -40 226.5t-109 83.5q-66 0 -104 -82q-32 -70 -32 -178q0 -139 40 -221t108 -82z" />
<glyph unicode="&#x153;" horiz-adv-x="748" d="M690 137l38 -37q-77 -110 -205 -110q-91 0 -148 48q-73 -48 -143 -48q-91 0 -151.5 64.5t-60.5 161.5q0 99 62.5 166.5t153.5 67.5q78 0 144 -54q73 54 155 54t137.5 -54t55.5 -134v-15h-275q-1 -77 31 -119.5t90 -42.5q56 0 116 52zM244 44q38 0 54.5 37.5t16.5 124.5 q0 93 -15 140q-15 48 -61 48q-40 0 -58 -46q-11 -28 -11 -130q0 -91 18 -132.5t56 -41.5zM453 293h132q-1 52 -16.5 76t-48.5 24q-32 0 -50 -26.5t-17 -73.5z" />
<glyph unicode="&#x178;" horiz-adv-x="620" d="M415 717q-31 0 -50.5 20t-19.5 51q0 28 21.5 49.5t48.5 21.5q29 0 50.5 -21.5t21.5 -50.5q0 -28 -21.5 -49t-50.5 -21zM203 717q-31 0 -50.5 20t-19.5 51q0 28 21.5 49.5t48.5 21.5q29 0 50.5 -21.5t21.5 -50.5q0 -28 -21.5 -49t-50.5 -21zM155 0v53h14q41 0 54 17t13 70 v110l-175 308q-20 34 -33 44t-41 12v53h325v-53h-15q-52 0 -52 -35q0 -20 24 -66l93 -173l105 173q21 36 21 54q0 43 -66 47v53h212v-53q-25 -4 -46.5 -26t-58.5 -80l-151 -237v-131q0 -53 13 -70t54 -17h21v-53h-311z" />
<glyph unicode="&#x2c6;" horiz-adv-x="500" d="M119 498l80 156h101l80 -156h-67l-66 81l-58 -81h-70z" />
<glyph unicode="&#x2dc;" horiz-adv-x="500" d="M101 514l-23 33q20 35 52 57.5t61 22.5t87 -21q44 -16 72 -16q26 0 49 24l23 -29q-51 -73 -119 -73q-16 0 -72 18q-43 15 -68 15q-38 0 -62 -31z" />
<glyph unicode="&#x2000;" horiz-adv-x="449" />
<glyph unicode="&#x2001;" horiz-adv-x="898" />
<glyph unicode="&#x2002;" horiz-adv-x="449" />
<glyph unicode="&#x2003;" horiz-adv-x="898" />
<glyph unicode="&#x2004;" horiz-adv-x="299" />
<glyph unicode="&#x2005;" horiz-adv-x="224" />
<glyph unicode="&#x2006;" horiz-adv-x="149" />
<glyph unicode="&#x2007;" horiz-adv-x="149" />
<glyph unicode="&#x2008;" horiz-adv-x="112" />
<glyph unicode="&#x2009;" horiz-adv-x="179" />
<glyph unicode="&#x200a;" horiz-adv-x="49" />
<glyph unicode="&#x2010;" horiz-adv-x="303" d="M33 178v103h236v-103h-236z" />
<glyph unicode="&#x2011;" horiz-adv-x="303" d="M33 178v103h236v-103h-236z" />
<glyph unicode="&#x2012;" horiz-adv-x="303" d="M33 178v103h236v-103h-236z" />
<glyph unicode="&#x2013;" horiz-adv-x="479" d="M33 180v102h412v-102h-412z" />
<glyph unicode="&#x2014;" horiz-adv-x="776" d="M33 180v102h710v-102h-710z" />
<glyph unicode="&#x2018;" horiz-adv-x="234" d="M186 679l26 -49q-44 -6 -75 -30.5t-31 -53.5q0 -26 23 -26q42 -2 61.5 -17.5t19.5 -48.5q0 -32 -24.5 -55t-58.5 -23q-44 0 -74.5 35.5t-30.5 86.5q0 65 44 113.5t120 67.5z" />
<glyph unicode="&#x2019;" horiz-adv-x="234" d="M49 377l-27 48q44 6 75 30.5t31 53.5q0 24 -23 26q-42 2 -61.5 17.5t-19.5 48.5q0 32 24.5 55t58.5 23q44 0 74.5 -35.5t30.5 -86.5q0 -64 -43.5 -112t-119.5 -68z" />
<glyph unicode="&#x201a;" horiz-adv-x="234" d="M49 -157l-27 48q44 6 75 30.5t31 53.5q0 24 -23 26q-42 2 -61.5 17.5t-19.5 48.5q0 32 24.5 55t58.5 23q44 0 74.5 -35.5t30.5 -86.5q0 -64 -43.5 -112t-119.5 -68z" />
<glyph unicode="&#x201c;" horiz-adv-x="451" d="M186 680l26 -48q-44 -6 -75 -31t-31 -53q0 -16 7 -20.5t31 -5.5q29 -2 47.5 -20t18.5 -46q0 -32 -24.5 -55t-58.5 -23q-44 0 -74.5 35.5t-30.5 86.5q0 64 43.5 112t120.5 68zM403 679l26 -49q-44 -6 -75 -30.5t-31 -53.5q0 -26 23 -26q42 -2 61.5 -17.5t19.5 -48.5 q0 -32 -24.5 -55t-58.5 -23q-44 0 -74.5 35.5t-30.5 86.5q0 65 44 113.5t120 67.5z" />
<glyph unicode="&#x201d;" horiz-adv-x="451" d="M49 378l-27 48q44 6 75 30.5t31 53.5q0 16 -7 20.5t-31 5.5q-29 2 -47.5 20t-18.5 46q0 32 24.5 55t58.5 23q44 0 74.5 -35.5t30.5 -86.5q0 -65 -43.5 -113t-119.5 -67zM266 377l-27 48q44 6 75 30.5t31 53.5q0 26 -23 26q-42 2 -61.5 17.5t-19.5 48.5q0 32 24.5 55 t58.5 23q44 0 74.5 -35.5t30.5 -86.5q0 -65 -43.5 -113t-119.5 -67z" />
<glyph unicode="&#x201e;" horiz-adv-x="484" d="M65 -157l-27 48q44 7 75 31.5t31 52.5q0 24 -23 26q-31 1 -46 8q-35 15 -35 58q0 32 24.5 55t58.5 23q44 0 74.5 -35.5t30.5 -86.5q0 -64 -43.5 -112t-119.5 -68zM282 -159l-27 49q44 6 75 30.5t31 53.5q0 15 -7 20t-31 6q-29 1 -47.5 19t-18.5 46q0 32 24.5 55t58.5 23 q44 0 74.5 -35.5t30.5 -86.5q0 -64 -43.5 -112t-119.5 -68z" />
<glyph unicode="&#x2022;" horiz-adv-x="343" d="M172 187q-56 0 -96 40t-40 97q0 56 40 96t96 40t96.5 -40t40.5 -96q0 -57 -40.5 -97t-96.5 -40z" />
<glyph unicode="&#x2026;" horiz-adv-x="721" d="M514 78q0 36 26 61.5t63 25.5q35 0 60.5 -26t25.5 -62q0 -37 -25.5 -62t-62.5 -25q-36 0 -61.5 25.5t-25.5 62.5zM273 78q0 36 26 61.5t63 25.5q35 0 60.5 -26t25.5 -62q0 -37 -25.5 -62t-62.5 -25q-36 0 -61.5 25.5t-25.5 62.5zM33 78q0 36 26 61.5t63 25.5 q35 0 60.5 -26t25.5 -62q0 -37 -25.5 -62t-62.5 -25q-36 0 -61.5 25.5t-25.5 62.5z" />
<glyph unicode="&#x202f;" horiz-adv-x="179" />
<glyph unicode="&#x2039;" horiz-adv-x="271" d="M136 48l-103 176l95 172h104l-96 -172l102 -176h-102z" />
<glyph unicode="&#x203a;" horiz-adv-x="271" d="M38 53l96 172l-101 175h101l103 -175l-95 -172h-104z" />
<glyph unicode="&#x205f;" horiz-adv-x="224" />
<glyph unicode="&#x20ac;" horiz-adv-x="759" d="M28 260l23 55h48q0 23 1 38h-72l23 55h58q31 125 128 198t233 73q103 0 225 -53l19 -158h-74q-22 72 -69.5 114t-106.5 42q-75 0 -122 -57t-58 -159h284l-23 -55h-264v-3q-1 -10 -1 -18q0 -6 1 -14v-3h248l-23 -55h-222q11 -102 59.5 -158t127.5 -56q69 0 117 42.5 t68 122.5h76l-9 -160q-149 -61 -274 -61q-142 0 -235.5 72.5t-110.5 197.5h-75z" />
<glyph unicode="&#x2122;" horiz-adv-x="978" d="M419 262v17q36 1 44 11t8 52v224q0 40 -8 52t-36 12h-8v18h176l110 -237l109 237h166v-18q-31 0 -40 -11.5t-9 -52.5v-237q0 -26 10.5 -37.5t38.5 -12.5v-17h-220v17q35 0 44.5 11t9.5 52v240h-2l-150 -320h-12l-150 320h-2v-252q0 -30 11.5 -40.5t43.5 -10.5v-17h-134z M74 262v17q35 2 42 11t7 52v281h-15q-46 0 -67.5 -19t-26.5 -64h-16v108h368v-108h-16q-4 45 -25 64t-68 19h-16v-281q0 -43 7 -52t41 -11v-17h-215z" />
<glyph unicode="&#x25fc;" horiz-adv-x="435" d="M0 435h435v-435h-435v435z" />
</font>
</defs>
</svg>
