<?xml version="1.0" encoding="UTF-8"?><svg xmlns="http://www.w3.org/2000/svg" width="100%" height="100%"><defs><font id="web" horiz-adv-x="1387"><!--



NOTICE: This font software is the valuable property 
of Webtype LLC, The Font Bureau, Webtype and/or its 
suppliers and its use by you is covered under the terms 
of the Web Font license agreement between you and Webtype 
LLC. You may ONLY use this font software with the licensed 
web site. Except as specifically permitted by the license, 
you may not copy this font software. If you have any 
questions, please contact Webtype.com. 

For more information, please visit http://www.webtype.com/store/license/?id=23

Licensed to: sanfranciscochronicle.com

Serial number: SH-1336
--><font-face font-family="" units-per-em="2048" panose-1="2 0 5 3 0 0 0 2 0 4" ascent="2220" descent="-766" alphabetic="0"/><missing-glyph horiz-adv-x="1024" d="M0 1434H1024V0H0V1434ZM102 102H922V1331H102V102Z"/><glyph unicode=" " horiz-adv-x="440"/><glyph unicode="!" horiz-adv-x="823" d="M223 360H596V0H223V360ZM236 1518H588L553 477H266L236 1518Z"/><glyph unicode="&quot;" horiz-adv-x="1184" d="M174 1518H508L489 815H195L174 1518ZM674 1518H1010L989 815H694L674 1518Z"/><glyph unicode="#" horiz-adv-x="1642" d="M338 365H115V643H391L424 823H115V1104H479L559 1518H866L784 1104H987L1067 1518H1372L1294 1104H1530V823H1241L1208 643H1530V365H1153L1083 0H776L846 365H645L575 0H268L338 365ZM922 627L963 842H711L670 627H922Z"/><glyph unicode="$" horiz-adv-x="1405" d="M559 1663H854V1513Q944 1507 1047 1478T1231 1399L1094 1161Q1030 1202 920 1227T707 1253Q568 1253 507 1217T446 1092Q446 1036 471 1003T549 949T791 897Q1008 864 1107 813T1253 676T1300 467Q1300 262 1188 150T854 9V-193H559V5Q249 35 68 162L203 385Q311 318 427 286T684 254Q844 254 919 296T995 442Q995 503 969 539T882 598T668 641Q507 665 438 686T313 737T219 814T159 923T137 1073Q137 1272 239 1379T559 1512V1663Z"/><glyph unicode="%" horiz-adv-x="2554" d="M553 539Q318 539 192 668T66 1040Q66 1280 193 1411T553 1542Q781 1542 907 1412T1034 1040Q1034 798 908 669T553 539ZM553 778Q652 778 700 842T748 1040Q748 1294 553 1294Q352 1294 352 1040Q352 778 553 778ZM2003 -18Q1769 -18 1645 113T1520 485Q1520 724 1646 855T2003 987Q2231 987 2358 857T2486 485Q2486 243 2361 113T2003 -18ZM2003 221Q2102 221 2151 284T2200 485Q2200 612 2152 674T2003 737Q1905 737 1856 676T1806 485Q1806 352 1854 287T2003 221ZM1550 1520H1849L999 0H702L1550 1520Z"/><glyph unicode="&amp;" horiz-adv-x="1737" d="M662 -18Q346 -18 210 87T74 426Q74 566 148 672T383 857Q315 1017 315 1147Q315 1336 425 1439T743 1542Q939 1542 1041 1448T1143 1147Q1143 905 861 768L807 742Q938 582 1091 462Q1175 597 1266 922L1536 858Q1438 494 1327 320L1333 318Q1393 295 1449 285T1583 274H1597V0H1571Q1415 0 1311 22T1112 93L1085 77Q919 -18 662 -18ZM516 629Q446 583 417 535T387 430Q387 349 414 311T499 253T662 233Q778 233 864 264Q647 444 516 629ZM864 1147Q864 1212 839 1245T743 1278Q672 1278 645 1245T618 1147Q618 1064 671 956L674 949Q780 999 822 1045T864 1147Z"/><glyph unicode="'" horiz-adv-x="686" d="M174 1520H508L489 815H195L174 1520Z"/><glyph unicode="(" horiz-adv-x="1067" d="M631 -393Q505 -287 410 -131T260 216T205 621Q205 813 258 1005T412 1367T631 1638L864 1489Q688 1295 612 1084T535 623Q535 369 619 145T864 -244L631 -393Z"/><glyph unicode=")" horiz-adv-x="1067" d="M205 -244Q328 -106 393 18T495 292T532 621Q532 802 491 961T376 1256T205 1489L434 1638Q631 1469 746 1199T862 623Q862 435 809 244T655 -119T434 -393L205 -244Z"/><glyph unicode="*" horiz-adv-x="1247" d="M526 817L242 627L115 856L426 999L115 1147L240 1374L526 1182L498 1520H748L719 1178L1006 1374L1133 1149L819 999L1133 854L1008 629L719 821L745 483H498L526 817Z"/><glyph unicode="+" horiz-adv-x="1479" d="M580 578H190V866H580V1253H899V866H1288V578H899V188H580V578Z"/><glyph unicode="," horiz-adv-x="600" d="M123 -164Q235 -110 262 -82T289 0H113V369H485V106Q485 -40 462 -106T380 -220T201 -319L123 -164Z"/><glyph unicode="-" horiz-adv-x="870" d="M78 815H788V528H78V815Z"/><glyph unicode="." horiz-adv-x="600" d="M113 369H485V0H113V369Z"/><glyph unicode="/" horiz-adv-x="1176" d="M848 1518H1176L328 0H0L848 1518Z"/><glyph unicode="0" horiz-adv-x="1581" d="M793 -23Q448 -23 288 164T127 760Q127 1168 287 1355T793 1542Q1135 1542 1294 1354T1454 760Q1454 355 1294 166T793 -23ZM793 256Q969 256 1045 370T1122 760Q1122 1032 1046 1140T793 1249Q672 1249 599 1201T493 1053T459 760Q459 481 537 369T793 256Z"/><glyph unicode="1" horiz-adv-x="850" d="M322 1229H63V1518H637V0H322V1229Z"/><glyph unicode="2" horiz-adv-x="1321" d="M68 252L563 680Q732 827 781 882T851 983T872 1085Q872 1185 814 1223T612 1262Q507 1262 391 1235T201 1167L55 1415Q203 1490 332 1516T645 1542Q929 1542 1060 1440T1192 1116Q1192 1011 1160 925T1058 753T836 537L522 266H1208V0H68V252Z"/><glyph unicode="3" horiz-adv-x="1331" d="M643 -25Q445 -25 300 12T8 139L158 381Q284 309 396 277T627 244Q793 244 855 292T918 465Q918 550 889 593T792 655T606 674H340V944H602Q756 944 815 979T874 1112Q874 1202 821 1235T621 1268Q511 1268 399 1239T209 1163L45 1399Q158 1468 315 1505T651 1542Q936 1542 1063 1455T1190 1178Q1190 1026 1149 946T1010 829Q1131 797 1181 709T1231 440Q1231 203 1094 89T643 -25Z"/><glyph unicode="4" horiz-adv-x="1434" d="M70 551L735 1518H1079L422 569H848L913 1001H1139V569H1380V311H1139V0H844V311H70V551Z"/><glyph unicode="5" horiz-adv-x="1376" d="M682 -23Q510 -23 361 15T72 141L221 383Q354 308 461 276T674 244Q799 244 862 269T956 350T987 496Q987 588 956 643T863 724T684 750Q515 750 403 696L135 776L174 1518H1190V1243H446L430 958Q544 1014 764 1014Q975 1014 1088 960T1255 792T1309 506Q1309 319 1248 203T1057 32T682 -23Z"/><glyph unicode="6" horiz-adv-x="1493" d="M784 -23Q440 -23 280 140T119 655Q119 926 167 1083T318 1335T598 1473T1053 1518H1194V1243H1042Q900 1243 801 1229T635 1189T529 1126T469 1041T438 889Q490 960 601 994T891 1028Q1155 1028 1278 909T1401 518Q1401 239 1251 108T784 -23ZM786 240Q895 240 961 267T1057 348T1087 506Q1087 652 1014 713T788 774Q453 774 453 522Q453 375 531 308T786 240Z"/><glyph unicode="7" horiz-adv-x="1206" d="M803 1243H23V1518H1155V1284L604 0H266L803 1243Z"/><glyph unicode="8" horiz-adv-x="1513" d="M756 -33Q435 -33 269 83T102 428Q102 752 346 831Q249 870 202 944T154 1153Q154 1355 306 1448T756 1542Q1057 1542 1208 1448T1360 1153Q1360 1023 1313 946T1165 831Q1413 752 1413 428Q1413 201 1246 84T756 -33ZM756 225Q923 225 1005 281T1087 455Q1087 573 1006 629T756 686Q586 686 507 630T428 455Q428 337 508 281T756 225ZM756 930Q906 930 976 972T1047 1110Q1047 1202 978 1244T756 1286Q605 1286 536 1245T467 1110Q467 1014 537 972T756 930Z"/><glyph unicode="9" horiz-adv-x="1493" d="M315 266H469Q613 266 713 280T879 320T985 382T1043 464T1073 623Q1021 552 912 519T621 485Q361 485 236 607T111 995Q111 1276 261 1409T727 1542Q1072 1542 1232 1379T1393 864Q1393 511 1306 334T1019 78T459 0H315V266ZM723 733Q1059 733 1059 983Q1059 1131 979 1198T727 1266Q617 1266 552 1240T455 1160T424 999Q424 858 495 796T723 733Z"/><glyph unicode=":" horiz-adv-x="641" d="M133 356H506V0H133V356ZM133 1159H506V803H133V1159Z"/><glyph unicode=";" horiz-adv-x="641" d="M143 -164Q255 -110 282 -82T309 0H133V356H506V106Q506 -32 480 -101T394 -221T221 -319L143 -164ZM133 1159H506V803H133V1159Z"/><glyph unicode="&lt;" horiz-adv-x="1479" d="M227 600V819L1171 1286V997L563 711L1171 422V129L227 600Z"/><glyph unicode="=" horiz-adv-x="1479" d="M203 616H1278V330H203V616ZM203 1112H1278V827H203V1112Z"/><glyph unicode="&gt;" horiz-adv-x="1479" d="M307 422L918 707L307 995V1286L1253 817V596L307 129V422Z"/><glyph unicode="?" horiz-adv-x="1438" d="M520 440Q508 521 508 582Q508 698 561 767T770 905Q862 946 903 973T960 1029T977 1110Q977 1170 952 1199T872 1241T717 1255Q485 1255 283 1155L147 1421Q250 1473 412 1507T741 1542Q1041 1542 1175 1446T1309 1139Q1309 1040 1282 970T1199 848T1026 745Q899 689 865 650T830 533L834 440H520ZM489 322H862V0H489V322Z"/><glyph unicode="@" horiz-adv-x="2177" d="M1122 -338Q612 -338 377 -111T141 596Q141 1064 378 1304T1085 1544Q2038 1544 2038 596Q2038 376 2002 266T1883 107T1638 59Q1507 59 1431 95T1331 215Q1277 137 1193 106T967 74Q747 74 637 203T526 608Q526 1139 983 1139Q1126 1139 1197 1112T1313 1014L1384 1122L1573 1106V369Q1575 305 1588 277T1630 234T1706 219Q1771 219 1803 246T1849 340T1862 596Q1862 994 1675 1185T1085 1376Q694 1376 506 1182T317 596Q317 207 511 19T1120 -170Q1269 -170 1416 -138T1659 -57L1733 -207Q1471 -338 1122 -338ZM1038 313Q1171 313 1230 384T1290 608Q1290 762 1233 822T1038 883Q923 883 868 818T813 608Q813 457 868 385T1038 313Z"/><glyph unicode="A" horiz-adv-x="1618" d="M637 1528H977L1589 0H1241L1143 250H455L356 0H29L637 1528ZM1036 526L799 1130L561 526H1036Z"/><glyph unicode="B" horiz-adv-x="1546" d="M152 1518H856Q1161 1518 1296 1426T1432 1126Q1432 993 1383 911T1229 791Q1359 760 1416 673T1473 418Q1473 265 1411 175T1219 42T852 0H152V1518ZM891 279Q1020 279 1076 318T1133 451Q1133 541 1079 581T891 621H481V279H891ZM868 911Q987 911 1039 948T1092 1077Q1092 1164 1039 1198T868 1233H481V911H868Z"/><glyph unicode="C" horiz-adv-x="1554" d="M850 -23Q449 -23 260 167T70 760Q70 1147 270 1344T870 1542Q1064 1542 1207 1491T1466 1323L1235 1092Q1157 1168 1069 1201T868 1235Q634 1235 521 1118T408 756Q408 503 519 390T870 276Q989 276 1076 309T1255 430L1477 213Q1355 86 1204 32T850 -23Z"/><glyph unicode="D" horiz-adv-x="1610" d="M152 1518H696Q1031 1518 1207 1446T1462 1211T1542 760Q1542 475 1459 311T1197 74T688 0H152V1518ZM707 293Q904 293 1009 334T1159 467T1204 760Q1204 921 1180 1001T1103 1128T955 1195T700 1217H487V293H707Z"/><glyph unicode="E" horiz-adv-x="1407" d="M152 1518H1292V1214H487V920H1272V627H487V291H1300V0H152V1518Z"/><glyph unicode="F" horiz-adv-x="1335" d="M152 1518H1255V1214H487V889H1235V590H487V0H152V1518Z"/><glyph unicode="G" horiz-adv-x="1636" d="M846 -23Q569 -23 399 57T150 302T70 760Q70 1156 268 1349T868 1542Q1277 1542 1483 1327L1253 1096Q1168 1175 1076 1205T866 1235Q628 1235 517 1119T406 756Q406 562 451 459T595 308T862 260Q1069 260 1156 329T1243 571V604H819V883H1575V635Q1575 393 1501 253T1267 45T846 -23Z"/><glyph unicode="H" horiz-adv-x="1669" d="M152 1518H487V936H1182V1518H1518V0H1182V623H487V0H152V1518Z"/><glyph unicode="I" horiz-adv-x="682" d="M174 1518H508V0H174V1518Z"/><glyph unicode="J" horiz-adv-x="932" d="M268 -4H188Q97 -4 45 0V291H227Q353 291 404 335T455 492V1518H788V479Q788 234 666 115T268 -4Z"/><glyph unicode="K" horiz-adv-x="1556" d="M152 1518H483V832L1059 1518H1430L917 917L1503 0H1124L699 661L483 408V0H152V1518Z"/><glyph unicode="L" horiz-adv-x="1264" d="M152 1518H487V291H1233V0H152V1518Z"/><glyph unicode="M" horiz-adv-x="2003" d="M152 1518H590L1001 481L1413 1518H1849V0H1522V1014L1114 0H860L455 1008V0H152V1518Z"/><glyph unicode="N" horiz-adv-x="1686" d="M152 1518H514L1212 561V1518H1532V0H1225L473 1024V0H152V1518Z"/><glyph unicode="O" horiz-adv-x="1747" d="M872 -25Q70 -25 70 760Q70 1542 872 1542Q1677 1542 1677 760Q1677 -25 872 -25ZM872 270Q1108 270 1222 387T1337 754Q1337 1005 1223 1120T872 1235Q637 1235 523 1120T408 754Q408 504 522 387T872 270Z"/><glyph unicode="P" horiz-adv-x="1556" d="M152 1518H881Q1192 1518 1339 1398T1487 1010Q1487 726 1333 596T864 465H479V0H152V1518ZM879 752Q1026 752 1088 808T1151 993Q1151 1123 1091 1177T874 1231H479V752H879Z"/><glyph unicode="Q" horiz-adv-x="1747" d="M1122 -406Q985 -406 893 -388T744 -330T660 -224T633 -36L634 12L540 33Q70 157 70 760Q70 1151 268 1346T872 1542Q1279 1542 1478 1346T1677 760Q1677 512 1598 348T1364 97T953 -4V-21Q953 -70 966 -92T1011 -123T1120 -133H1315V-401Q1238 -406 1122 -406ZM872 270Q1109 270 1223 384T1337 754Q1337 1010 1223 1122T872 1235Q635 1235 522 1122T408 754Q408 500 522 385T872 270Z"/><glyph unicode="R" horiz-adv-x="1581" d="M152 1518H885Q1094 1518 1223 1466T1415 1308T1477 1022Q1477 825 1396 708T1157 542L1458 0H1100L820 504H479V0H152V1518ZM874 793Q1025 793 1082 842T1139 1010Q1139 1136 1080 1183T870 1231H479V793H874Z"/><glyph unicode="S" horiz-adv-x="1518" d="M768 -23Q541 -23 358 28T45 176L213 418Q454 256 758 256Q893 256 968 273T1077 326T1110 440Q1110 493 1079 525T979 579T750 623Q484 660 364 712T189 852T133 1083Q133 1326 281 1434T766 1542Q1154 1542 1380 1393L1200 1133Q1124 1184 1000 1216T762 1249Q649 1249 586 1234T495 1187T467 1092Q467 1042 496 1011T585 959T834 911Q1047 881 1152 847T1319 761T1411 634T1442 457Q1442 203 1279 90T768 -23Z"/><glyph unicode="T" horiz-adv-x="1446" d="M555 1214H29V1518H1417V1214H893V0H555V1214Z"/><glyph unicode="U" horiz-adv-x="1671" d="M836 -29Q653 -29 522 6T307 108T182 284T141 580V1518H477V623Q477 479 512 408T625 302T840 268Q977 268 1055 301T1169 406T1204 623V1518H1530V580Q1530 392 1489 284T1364 108T1150 6T836 -29Z"/><glyph unicode="V" horiz-adv-x="1604" d="M31 1518H383L807 408L1229 1518H1575L971 -10H631L31 1518Z"/><glyph unicode="W" horiz-adv-x="2216" d="M39 1518H389L672 543L967 1518H1270L1567 543L1849 1518H2177L1716 -10H1419L1108 1010L797 -10H502L39 1518Z"/><glyph unicode="X" horiz-adv-x="1599" d="M111 1518H487L813 1050L1120 1518H1491L986 802L1546 0H1165L785 547L424 0H53L611 797L111 1518Z"/><glyph unicode="Y" horiz-adv-x="1556" d="M6 1518H367L784 834L1202 1518H1548L944 532V0H610V532L6 1518Z"/><glyph unicode="Z" horiz-adv-x="1417" d="M66 250L899 1214H100V1518H1323V1243L502 291H1346V0H66V250Z"/><glyph unicode="[" horiz-adv-x="1057" d="M223 1589H879V1313H549V-70H885V-338H223V1589Z"/><glyph unicode="\" horiz-adv-x="1176" d="M0 1518H328L1176 0H848L0 1518Z"/><glyph unicode="]" horiz-adv-x="1057" d="M172 -70H506V1313H176V1589H831V-338H172V-70Z"/><glyph unicode="^" horiz-adv-x="1208" d="M438 1507H770L1087 1132H786L600 1308L416 1132H121L438 1507Z"/><glyph unicode="_" horiz-adv-x="928" d="M-76 -82H1004V-322H-76V-82Z"/><glyph unicode="`" horiz-adv-x="1208" d="M139 1645H526L815 1270H530L139 1645Z"/><glyph unicode="a" horiz-adv-x="1321" d="M487 -18Q265 -18 158 65T51 340Q51 493 121 580T343 706T795 745H842L836 803Q828 855 777 879T612 903Q526 903 437 878T276 809L117 1044Q210 1107 358 1146T647 1186Q844 1186 951 1144T1105 1010T1151 725V373Q1151 316 1158 299T1183 274T1251 266V4Q1224 -4 1116 -4Q1019 -4 974 20T895 111Q798 -18 487 -18ZM356 367Q356 299 400 270T551 240Q706 240 774 297T842 481V524H815Q663 524 577 518T443 497T376 455T356 367Z"/><glyph unicode="b" horiz-adv-x="1395" d="M807 -18Q651 -18 554 11T406 100L342 -12L127 10V1589H446V1075Q541 1186 825 1186Q1074 1186 1198 1043T1323 582Q1323 275 1197 129T807 -18ZM745 252Q877 252 937 326T997 569Q997 693 972 759T891 859T745 893Q588 893 519 819T449 569Q449 389 515 321T745 252Z"/><glyph unicode="c" horiz-adv-x="1202" d="M666 -18Q458 -18 327 47T134 240T72 582Q72 801 137 931T338 1123T680 1186Q981 1186 1151 997L926 784Q869 844 810 867T680 891Q532 891 464 818T395 573Q395 450 424 384T516 285T682 252Q761 252 820 277T944 365L1149 168Q1031 59 925 21T666 -18Z"/><glyph unicode="d" horiz-adv-x="1395" d="M575 -23Q324 -23 198 125T72 586Q72 897 201 1041T586 1186Q861 1186 946 1077V1589H1268V12L1022 -10L989 106Q930 38 828 8T575 -23ZM651 254Q807 254 876 330T946 586Q946 710 918 773T827 867T651 897Q518 897 458 827T397 586Q397 407 458 331T651 254Z"/><glyph unicode="e" horiz-adv-x="1268" d="M676 -23Q473 -23 339 38T138 230T72 582Q72 801 140 932T342 1124T674 1186Q938 1186 1061 1061T1191 648V568L1190 459H383Q394 379 426 333T517 262T676 238Q793 238 878 262T1040 344L1202 135Q1087 49 964 13T676 -23ZM897 688Q891 785 867 829T795 896T664 918Q570 918 513 893T426 821T383 688H897Z"/><glyph unicode="f" horiz-adv-x="909" d="M51 1159H270V1214Q270 1438 374 1532T709 1626L862 1622V1360H752Q666 1360 628 1329T590 1217V1159H862V885H590V0H270V885H51V1159Z"/><glyph unicode="g" horiz-adv-x="1335" d="M641 426Q558 426 488 433V432Q477 413 477 391Q477 354 508 341T668 328Q914 328 1037 300T1214 208T1268 10Q1268 -189 1121 -278T637 -367Q383 -367 262 -341T88 -256T35 -84Q35 126 262 176Q228 200 211 237T193 340Q193 440 250 502Q100 592 100 793Q100 993 233 1089T641 1186L706 1184L1221 1286V1042H1056Q1126 1001 1155 942T1184 793Q1184 601 1054 514T641 426ZM649 -145Q808 -145 874 -116T940 -12Q940 49 880 71T649 94Q538 94 476 83T386 49T358 -27Q358 -75 385 -99T472 -134T649 -145ZM641 639Q759 639 813 672T868 788Q868 868 816 903T641 938Q517 938 466 904T414 788Q414 707 467 673T641 639Z"/><glyph unicode="h" horiz-adv-x="1360" d="M127 1589H446V1081Q545 1186 823 1186Q974 1186 1064 1138T1197 992T1239 702V0H920V639Q920 746 900 791T835 859T709 883Q614 883 557 857T475 780T449 625V0H127V1589Z"/><glyph unicode="i" horiz-adv-x="600" d="M139 1159H459V0H139V1159ZM137 1559H461V1266H137V1559Z"/><glyph unicode="j" horiz-adv-x="600" d="M6 -102H31Q78 -102 100 -92T130 -55T139 47V1159H459V49Q459 -116 425 -197T312 -312T66 -346H6V-102ZM137 1559H461V1266H137V1559Z"/><glyph unicode="k" horiz-adv-x="1239" d="M127 1589H444V680L840 1159H1190L801 686L1225 0H868L585 446L444 281V0H127V1589Z"/><glyph unicode="l" horiz-adv-x="698" d="M457 -4Q284 -4 212 79T139 350V1589H459V389Q459 317 480 293T573 268H612V4Q559 -4 457 -4Z"/><glyph unicode="m" horiz-adv-x="2103" d="M127 1141L377 1159L403 1059Q447 1120 551 1153T811 1186Q913 1186 977 1174T1080 1138T1149 1055Q1252 1186 1579 1186Q1728 1186 1816 1138T1945 994T1985 702V0H1661V639Q1661 756 1643 798T1584 861T1464 883Q1371 883 1318 859T1241 786T1217 625V0H895V639Q895 757 877 798T816 861T696 883Q603 883 550 859T473 786T449 625V0H127V1141Z"/><glyph unicode="n" horiz-adv-x="1360" d="M127 1141L377 1159L403 1059Q520 1186 823 1186Q974 1186 1064 1138T1197 992T1239 702V0H920V639Q920 746 900 791T835 859T709 883Q614 883 557 857T475 780T449 625V0H127V1141Z"/><glyph unicode="o" horiz-adv-x="1354" d="M678 -23Q369 -23 221 124T72 582Q72 890 219 1038T678 1186Q987 1186 1134 1039T1282 582Q1282 270 1133 124T678 -23ZM678 252Q824 252 892 327T961 573Q961 744 893 818T678 893Q531 893 463 818T395 573Q395 402 463 327T678 252Z"/><glyph unicode="p" horiz-adv-x="1395" d="M127 1141L377 1159L403 1057Q461 1125 566 1155T827 1186Q1076 1186 1199 1042T1323 582Q1323 268 1194 125T809 -18Q668 -18 582 7T449 90V-338H127V1141ZM745 254Q875 254 936 326T997 569Q997 693 972 759T891 859T745 893Q587 893 518 820T449 569Q449 392 514 323T745 254Z"/><glyph unicode="q" horiz-adv-x="1395" d="M946 82Q894 28 809 3T575 -23Q324 -23 198 124T72 584Q72 891 198 1038T586 1186Q742 1186 839 1157T989 1067L1053 1165L1268 1147V-338H946V82ZM651 254Q807 254 876 330T946 584Q946 709 918 773T828 867T651 897Q520 897 459 827T397 584Q397 405 459 330T651 254Z"/><glyph unicode="r" horiz-adv-x="827" d="M127 1141L377 1159L410 1032Q445 1087 545 1127T780 1171V864Q658 863 587 835T483 747T449 573V0H127V1141Z"/><glyph unicode="s" horiz-adv-x="1174" d="M573 -18Q236 -18 20 127L184 362Q271 306 381 274T594 242Q725 242 764 262T803 338Q803 368 789 385T741 414T598 440Q437 462 369 480T249 526T163 593T111 688T92 823Q92 1011 215 1098T598 1186Q741 1186 869 1158T1087 1079L934 829Q863 866 773 885T608 905Q535 905 492 897T431 872T412 821Q412 775 449 756T602 721Q713 706 807 688T969 632T1077 529T1116 356Q1116 217 1063 138T892 20T573 -18Z"/><glyph unicode="t" horiz-adv-x="928" d="M51 1159H257L311 1442L561 1493V1159H836V885H561V408Q561 343 575 318T620 280T711 268H836V0Q800 -4 692 -4H645Q494 -4 408 30T282 140T242 360V885H51V1159Z"/><glyph unicode="u" horiz-adv-x="1343" d="M674 -18Q462 -18 344 34T174 200T121 541V1159H442V535Q442 474 446 424T472 337T542 280T676 260Q766 260 815 284T886 355T907 537V1159H1223V543Q1223 315 1171 200T1002 34T674 -18Z"/><glyph unicode="v" horiz-adv-x="1255" d="M-2 1159H344L637 373L930 1159H1255L795 -12H459L-2 1159Z"/><glyph unicode="w" horiz-adv-x="1884" d="M18 1159H356L569 453L791 1159H1108L1329 455L1542 1159H1866L1489 -12H1182L942 733L702 -12H397L18 1159Z"/><glyph unicode="x" horiz-adv-x="1227" d="M49 1159H408L632 838L842 1159H1180L795 604L1217 0H856L596 374L348 0H10L434 606L49 1159Z"/><glyph unicode="y" horiz-adv-x="1196" d="M-2 1159H344L612 421L872 1159H1198L733 -51Q688 -173 633 -234T493 -321T274 -348L160 -344V-102H246Q310 -102 344 -95T396 -72T426 -16L441 26L-2 1159Z"/><glyph unicode="z" horiz-adv-x="1106" d="M41 215L616 885H74V1159H1049V940L469 258H1071V0H41V215Z"/><glyph unicode="{" horiz-adv-x="1133" d="M700 -338Q490 -338 395 -266T299 -49Q299 19 350 188Q383 299 392 338T401 399Q401 455 355 474T139 494V756Q272 756 317 764T382 792T401 852Q401 876 393 913T350 1063Q299 1232 299 1300Q299 1445 394 1517T700 1589H961V1313H778Q695 1313 663 1292T631 1210Q631 1180 677 1025Q723 869 723 795Q723 665 586 627Q723 585 723 457Q723 385 677 224Q631 63 631 33Q631 -27 662 -48T778 -70H961V-338H700Z"/><glyph unicode="|" horiz-adv-x="774" d="M223 1589H549V-338H223V1589Z"/><glyph unicode="}" horiz-adv-x="1133" d="M172 -70H356Q439 -70 471 -49T504 33Q504 60 480 146Q434 304 422 362T410 457Q410 585 547 627Q410 664 410 795Q410 866 457 1025Q504 1183 504 1210Q504 1270 473 1291T356 1313H172V1589H432Q644 1589 740 1517T836 1300Q836 1230 784 1063Q731 896 731 852Q731 796 776 777T993 758V496Q824 496 778 477T731 399Q731 355 784 188Q836 21 836 -49Q836 -194 740 -266T432 -338H172V-70Z"/><glyph unicode="~" horiz-adv-x="1208" d="M113 900Q291 1121 457 1121Q511 1121 548 1104T616 1066T675 1028T739 1011Q812 1011 911 1131L1090 986Q907 761 745 761Q694 761 657 778T589 816T529 854T463 871Q385 871 291 755L113 900Z"/><glyph unicode=" " horiz-adv-x="440"/><glyph unicode="¡" horiz-adv-x="823" d="M268 1040H555L588 0H236L268 1040ZM225 1518H598V1157H225V1518Z"/><glyph unicode="¢" horiz-adv-x="1208" d="M78 582Q78 764 123 882T264 1071T510 1166V1307H815V1168Q1017 1135 1141 997L926 793Q874 847 815 872T680 897Q532 897 461 822T389 573Q389 401 460 324T682 246Q761 246 821 271T944 354L1139 168Q1055 90 981 53T818 0L815 -1V-193H510V-1L457 8Q262 54 170 191T78 582Z"/><glyph unicode="£" horiz-adv-x="1376" d="M51 897H232Q199 1037 199 1118Q199 1338 331 1441T731 1544Q989 1544 1192 1462L1069 1196Q1008 1223 916 1240T723 1257Q615 1257 566 1217T516 1073Q516 1017 543 897H924V651H603Q631 530 631 451Q631 373 617 308Q658 290 729 272T870 254Q936 254 971 269T1021 319T1036 436V496H1315V424Q1315 185 1216 86T879 -14Q686 -14 480 92Q343 0 57 0V260Q173 260 233 273T317 318T342 442Q342 485 328 550T301 651H51V897Z"/><glyph unicode="¤" horiz-adv-x="1152" d="M1056 392L940 284L740 500Q668 452 572 452Q480 452 408 500L208 284L92 392L300 608Q272 648 262 686T252 780Q252 883 300 952L92 1168L208 1276L408 1060Q480 1108 572 1108Q668 1108 740 1060L944 1276L1060 1156L852 952Q880 912 890 872T900 780Q900 684 848 608L1056 392ZM748 780Q748 860 698 910T572 960Q496 960 448 910T400 780Q400 700 450 652T572 604Q652 604 700 652T748 780Z"/><glyph unicode="¥" horiz-adv-x="1399" d="M152 350H539V469H152V694H526L18 1518H360L698 940L1038 1518H1378L870 694H1243V469H856V350H1243V125H856V0H539V125H152V350Z"/><glyph unicode="¦" horiz-adv-x="774" d="M223 465H549V-338H223V465ZM223 1589H549V786H223V1589Z"/><glyph unicode="§" horiz-adv-x="1241" d="M449 1114Q449 1277 493 1359T633 1484T889 1526L1042 1522V1260H930Q867 1260 832 1247T783 1205T768 1116V1085Q944 1061 1029 979T1114 752Q1114 612 1034 532T780 426V401Q780 239 733 154T588 29T340 -10L186 -6V244H299Q360 244 395 257T444 296T459 387V426Q288 449 208 530T127 752Q127 1031 449 1082V1114ZM618 618Q744 618 800 647T856 743Q856 809 803 838T618 868Q491 868 438 839T385 743Q385 676 440 647T618 618Z"/><glyph unicode="¨" horiz-adv-x="1208" d="M227 1559H518V1280H227V1559ZM692 1559H981V1280H692V1559Z"/><glyph unicode="©" horiz-adv-x="1657" d="M844 272Q348 272 348 770Q348 1012 478 1140T856 1268Q983 1268 1074 1233T1233 1128L1087 983Q997 1073 854 1073Q561 1073 561 768Q561 461 856 461Q924 461 981 481T1100 557L1239 422Q1163 343 1069 308T844 272ZM827 -25Q592 -25 420 72T158 346T68 760Q68 996 158 1173T419 1447T827 1544Q1061 1544 1234 1447T1498 1172T1589 760Q1589 525 1499 347T1235 72T827 -25ZM827 92Q1032 92 1175 171T1391 401T1464 760Q1464 1079 1299 1253T827 1427Q521 1427 356 1254T190 760Q190 438 355 265T827 92Z"/><glyph unicode="ª" horiz-adv-x="1264" d="M453 565Q285 565 202 635T119 856Q119 981 178 1053T364 1158T723 1190H757Q755 1247 738 1268T683 1300T575 1311Q506 1311 433 1290T305 1235L174 1427Q245 1476 365 1508T604 1540Q764 1540 850 1507T973 1399T1010 1167V887Q1010 829 1023 814T1094 799V582Q1038 575 985 575Q890 575 847 601T788 684Q747 615 672 590T453 565ZM209 465H1010V238H209V465ZM369 879Q369 826 402 801T522 776Q641 776 699 822T758 971V1010H739Q603 1010 520 1001T403 966T369 879Z"/><glyph unicode="«" horiz-adv-x="1571" d="M205 578L514 1159H795L510 578L795 0H514L205 578ZM717 578L1026 1159H1309L1024 578L1309 0H1026L717 578Z"/><glyph unicode="¬" horiz-adv-x="1536" d="M1116 352V728H212V920H1296V352H1116Z"/><glyph unicode="­" horiz-adv-x="870" d="M78 815H788V528H78V815Z"/><glyph unicode="®" horiz-adv-x="1657" d="M827 -25Q592 -25 420 72T158 346T68 760Q68 996 158 1173T419 1447T827 1544Q1061 1544 1234 1447T1498 1172T1589 760Q1589 525 1499 347T1235 72T827 -25ZM827 92Q1032 92 1175 171T1391 401T1464 760Q1464 1079 1299 1253T827 1427Q521 1427 356 1254T190 760Q190 438 355 265T827 92ZM451 1223H895Q1025 1223 1103 1193T1217 1102T1253 922Q1253 851 1238 796T1183 700T1059 631L1247 291H1036L860 612H645V291H451V1223ZM889 780Q986 780 1019 810T1053 915Q1053 993 1019 1022T887 1051H645V780H889Z"/><glyph unicode="¯" horiz-adv-x="1208" d="M174 1505H1034V1249H174V1505Z"/><glyph unicode="°" horiz-adv-x="1165" d="M582 547Q427 547 317 607T148 779T90 1044Q90 1195 147 1307T315 1481T582 1542Q812 1542 943 1411T1075 1044Q1075 811 944 679T582 547ZM582 780Q697 780 758 844T819 1036Q819 1163 759 1227T582 1292Q346 1292 346 1036Q346 780 582 780Z"/><glyph unicode="±" horiz-adv-x="1479" d="M190 299H580V578H190V866H580V1253H899V866H1288V578H899V299H1288V12H190V299Z"/><glyph unicode="²" horiz-adv-x="1051" d="M127 692L444 965Q559 1064 588 1095T630 1153T643 1221Q643 1278 605 1301T477 1325Q412 1325 341 1308T221 1264L111 1450Q199 1496 290 1515T510 1534Q704 1534 795 1465T887 1249Q887 1182 866 1128T800 1018T639 864L477 719H895V520H127V692Z"/><glyph unicode="³" horiz-adv-x="1075" d="M522 508Q385 508 285 533T88 621L211 797Q287 752 352 734T498 715Q610 715 647 742T684 842Q684 910 643 933T483 956H307V1151H479Q592 1151 623 1168T655 1237Q655 1288 622 1305T492 1323Q333 1323 219 1255L104 1440Q179 1486 289 1511T528 1536Q722 1536 813 1479T905 1294Q905 1203 874 1151T778 1073Q855 1050 893 990T932 813Q932 652 830 580T522 508Z"/><glyph unicode="´" horiz-adv-x="1208" d="M682 1645H1069L678 1270H393L682 1645Z"/><glyph unicode="µ" horiz-adv-x="1352" d="M127 1159H449V535Q449 474 453 424T479 337T549 280T682 260Q773 260 822 284T892 355T913 537V1159H1231V543Q1231 319 1181 203T1018 35T705 -18Q599 -18 541 -4T449 41V-338H127V1159Z"/><glyph unicode="¶" horiz-adv-x="1391" d="M930 489H762V0H461V510Q270 549 180 662T90 1010Q90 1203 151 1308T343 1465T696 1518H1231V0H930V489ZM930 745V1239H690Q532 1239 473 1186T414 993Q414 855 474 800T686 745H930Z"/><glyph unicode="·" horiz-adv-x="600" d="M113 938H485V561H113V938Z"/><glyph unicode="¸" horiz-adv-x="1208" d="M604 -510Q451 -510 330 -442L410 -293Q508 -342 592 -342Q665 -342 693 -322T721 -258Q721 -220 692 -202T597 -184L541 -186L479 -147L514 14H694L676 -86H697Q797 -86 840 -105T907 -166T932 -281Q932 -397 853 -453T604 -510Z"/><glyph unicode="¹" horiz-adv-x="768" d="M295 1303H123V1518H547V520H295V1303Z"/><glyph unicode="º" horiz-adv-x="1251" d="M627 565Q376 565 256 686T135 1055Q135 1303 256 1422T627 1542Q872 1542 994 1423T1116 1055Q1116 807 995 686T627 565ZM627 791Q740 791 796 852T852 1047Q852 1180 796 1241T627 1303Q515 1303 458 1242T401 1047Q401 913 458 852T627 791ZM195 463H1057V233H195V463Z"/><glyph unicode="»" horiz-adv-x="1571" d="M549 580L264 1159H545L854 580L545 0H264L549 580ZM1059 580L774 1159H1057L1366 580L1057 0H774L1059 580Z"/><glyph unicode="¼" horiz-adv-x="2136" d="M1686 184H1184V362L1628 995H1901L1468 381H1690L1737 590H1923V381H2075V184H1923V0H1686V184ZM250 1303H78V1518H510V522H250V1303ZM1282 1518H1563L715 0H432L1282 1518Z"/><glyph unicode="½" horiz-adv-x="2241" d="M1352 174L1667 444Q1799 557 1824 585T1858 638T1868 694Q1868 752 1829 775T1702 799Q1638 799 1569 783T1446 737L1333 924Q1423 970 1513 989T1735 1008Q1929 1008 2019 939T2109 723Q2109 655 2089 602T2023 495T1862 344L1700 199H2116V0H1352V174ZM250 1303H78V1518H510V522H250V1303ZM1282 1518H1563L715 0H432L1282 1518Z"/><glyph unicode="¾" horiz-adv-x="2410" d="M510 514Q371 514 270 540T74 625L199 803Q267 763 333 742T483 721Q595 721 632 747T670 846Q670 915 628 939T471 963H295V1157H467Q576 1157 609 1174T643 1245Q643 1292 613 1310T479 1329Q324 1329 205 1262L92 1446Q166 1492 276 1517T516 1542Q711 1542 801 1484T891 1300Q891 1132 754 1079Q920 1030 920 819Q920 658 818 586T510 514ZM1960 184H1458V362L1903 995H2177L1743 381H1966L2013 590H2200V381H2349V184H2200V0H1960V184ZM1559 1518H1839L991 0H711L1559 1518Z"/><glyph unicode="¿" horiz-adv-x="1438" d="M696 -25Q396 -25 263 70T129 379Q129 525 189 613T412 772Q537 826 572 866T607 985L602 1077H915Q926 999 926 939Q926 822 874 752T666 614Q569 571 530 544T475 488T459 408Q459 348 484 319T565 275T721 260Q956 264 1155 362L1290 96Q1172 39 1014 7T696 -25ZM573 1518H948V1196H573V1518Z"/><glyph unicode="À" horiz-adv-x="1616" d="M637 1528H977L1589 0H1241L1143 250H455L356 0H29L637 1528ZM1036 526L799 1130L561 526H1036ZM340 1975H727L1016 1600H731L340 1975Z"/><glyph unicode="Á" horiz-adv-x="1616" d="M637 1528H977L1589 0H1241L1143 250H455L356 0H29L637 1528ZM1036 526L799 1130L561 526H1036ZM883 1975H1270L879 1600H594L883 1975Z"/><glyph unicode="Â" horiz-adv-x="1616" d="M637 1528H977L1589 0H1241L1143 250H455L356 0H29L637 1528ZM1036 526L799 1130L561 526H1036ZM639 1975H971L1288 1600H987L801 1776L617 1600H322L639 1975Z"/><glyph unicode="Ã" horiz-adv-x="1616" d="M637 1528H977L1589 0H1241L1143 250H455L356 0H29L637 1528ZM1036 526L799 1130L561 526H1036ZM314 1737Q492 1958 658 1958Q712 1958 749 1941T817 1903T876 1865T940 1848Q1013 1848 1112 1968L1291 1823Q1108 1598 946 1598Q895 1598 858 1615T790 1653T730 1691T664 1708Q586 1708 492 1592L314 1737Z"/><glyph unicode="Ä" horiz-adv-x="1616" d="M637 1528H977L1589 0H1241L1143 250H455L356 0H29L637 1528ZM1036 526L799 1130L561 526H1036ZM428 1889H719V1610H428V1889ZM893 1889H1182V1610H893V1889Z"/><glyph unicode="Å" horiz-adv-x="1616" d="M596 1425Q514 1503 514 1651Q514 1794 590 1873T807 1952Q942 1952 1020 1872T1098 1651Q1098 1509 1016 1427L1589 0H1241L1143 250H455L356 0H29L596 1425ZM1036 526L799 1130L561 526H1036ZM807 1511Q870 1511 904 1547T938 1651Q938 1722 904 1757T807 1792Q674 1792 674 1651Q674 1583 707 1547T807 1511Z"/><glyph unicode="Æ" horiz-adv-x="2351" d="M958 1518H2236V1214H1432V920H2216V627H1432V291H2245V0H1110V260H506L332 0H6L958 1518ZM1110 532V1225L666 532H1110Z"/><glyph unicode="Ç" horiz-adv-x="1554" d="M850 -23Q449 -23 260 167T70 760Q70 1147 270 1344T870 1542Q1064 1542 1207 1491T1466 1323L1235 1092Q1157 1168 1069 1201T868 1235Q634 1235 521 1118T408 756Q408 503 519 390T870 276Q989 276 1076 309T1255 430L1477 213Q1355 86 1204 32T850 -23ZM774 -510Q621 -510 500 -442L580 -293Q678 -342 762 -342Q835 -342 863 -322T891 -258Q891 -220 862 -202T767 -184L711 -186L649 -147L684 14H864L846 -86H867Q967 -86 1010 -105T1077 -166T1102 -281Q1102 -397 1023 -453T774 -510Z"/><glyph unicode="È" horiz-adv-x="1407" d="M152 1518H1292V1214H487V920H1272V627H487V291H1300V0H152V1518ZM237 1975H624L913 1600H628L237 1975Z"/><glyph unicode="É" horiz-adv-x="1407" d="M780 1975H1167L776 1600H491L780 1975ZM152 1518H1292V1214H487V920H1272V627H487V291H1300V0H152V1518Z"/><glyph unicode="Ê" horiz-adv-x="1407" d="M536 1975H868L1185 1600H884L698 1776L514 1600H219L536 1975ZM152 1518H1292V1214H487V920H1272V627H487V291H1300V0H152V1518Z"/><glyph unicode="Ë" horiz-adv-x="1407" d="M325 1889H616V1610H325V1889ZM790 1889H1079V1610H790V1889ZM152 1518H1292V1214H487V920H1272V627H487V291H1300V0H152V1518Z"/><glyph unicode="Ì" horiz-adv-x="682" d="M-172 1976H229L508 1599H209L-172 1976ZM174 1518H508V0H174V1518Z"/><glyph unicode="Í" horiz-adv-x="682" d="M451 1976H852L473 1599H174L451 1976ZM174 1518H508V0H174V1518Z"/><glyph unicode="Î" horiz-adv-x="682" d="M174 1976H506L793 1599H492L336 1776L182 1599H-113L174 1976ZM174 1518H508V0H174V1518Z"/><glyph unicode="Ï" horiz-adv-x="682" d="M174 1518H508V0H174V1518ZM-34 1889H257V1610H-34V1889ZM431 1889H720V1610H431V1889Z"/><glyph unicode="Ð" horiz-adv-x="1610" d="M0 899H152V1518H696Q1031 1518 1207 1446T1462 1211T1542 760Q1542 481 1458 317T1194 76T688 0H152V635H0V899ZM707 293Q904 293 1009 334T1159 467T1204 760Q1204 921 1180 1001T1103 1128T955 1195T700 1217H487V899H770V635H487V293H707Z"/><glyph unicode="Ñ" horiz-adv-x="1686" d="M152 1518H514L1212 561V1518H1532V0H1225L473 1024V0H152V1518ZM349 1737Q527 1958 693 1958Q747 1958 784 1941T852 1903T911 1865T975 1848Q1048 1848 1147 1968L1326 1823Q1143 1598 981 1598Q930 1598 893 1615T825 1653T765 1691T699 1708Q621 1708 527 1592L349 1737Z"/><glyph unicode="Ò" horiz-adv-x="1747" d="M872 -25Q70 -25 70 760Q70 1542 872 1542Q1677 1542 1677 760Q1677 -25 872 -25ZM872 270Q1108 270 1222 387T1337 754Q1337 1005 1223 1120T872 1235Q637 1235 523 1120T408 754Q408 504 522 387T872 270ZM407 1975H794L1083 1600H798L407 1975Z"/><glyph unicode="Ó" horiz-adv-x="1747" d="M950 1975H1337L946 1600H661L950 1975ZM872 -25Q70 -25 70 760Q70 1542 872 1542Q1677 1542 1677 760Q1677 -25 872 -25ZM872 270Q1108 270 1222 387T1337 754Q1337 1005 1223 1120T872 1235Q637 1235 523 1120T408 754Q408 504 522 387T872 270Z"/><glyph unicode="Ô" horiz-adv-x="1747" d="M706 1975H1038L1355 1600H1054L868 1776L684 1600H389L706 1975ZM872 -25Q70 -25 70 760Q70 1542 872 1542Q1677 1542 1677 760Q1677 -25 872 -25ZM872 270Q1108 270 1222 387T1337 754Q1337 1005 1223 1120T872 1235Q637 1235 523 1120T408 754Q408 504 522 387T872 270Z"/><glyph unicode="Õ" horiz-adv-x="1747" d="M872 -25Q70 -25 70 760Q70 1542 872 1542Q1677 1542 1677 760Q1677 -25 872 -25ZM872 270Q1108 270 1222 387T1337 754Q1337 1005 1223 1120T872 1235Q637 1235 523 1120T408 754Q408 504 522 387T872 270ZM381 1737Q559 1958 725 1958Q779 1958 816 1941T884 1903T943 1865T1007 1848Q1080 1848 1179 1968L1358 1823Q1175 1598 1013 1598Q962 1598 925 1615T857 1653T797 1691T731 1708Q653 1708 559 1592L381 1737Z"/><glyph unicode="Ö" horiz-adv-x="1747" d="M495 1889H786V1610H495V1889ZM960 1889H1249V1610H960V1889ZM872 -25Q70 -25 70 760Q70 1542 872 1542Q1677 1542 1677 760Q1677 -25 872 -25ZM872 270Q1108 270 1222 387T1337 754Q1337 1005 1223 1120T872 1235Q637 1235 523 1120T408 754Q408 504 522 387T872 270Z"/><glyph unicode="×" horiz-adv-x="1479" d="M238 416L543 721L238 1026L436 1229L741 924L1044 1229L1241 1026L936 721L1241 418L1044 215L741 520L432 213L238 416Z"/><glyph unicode="Ø" horiz-adv-x="1747" d="M872 -25Q714 -25 582 6L528 -84H215L333 115Q70 312 70 760Q70 1151 268 1346T872 1542Q1026 1542 1155 1512L1210 1604H1522L1404 1407Q1677 1212 1677 760Q1677 369 1478 172T872 -25ZM872 258Q1116 258 1233 376T1350 754Q1350 880 1323 973T1228 1134L724 270Q790 258 872 258ZM872 1247Q627 1247 511 1129T395 754Q395 493 507 381L1007 1237Q946 1247 872 1247Z"/><glyph unicode="Ù" horiz-adv-x="1671" d="M836 -29Q653 -29 522 6T307 108T182 284T141 580V1518H477V623Q477 479 512 408T625 302T840 268Q977 268 1055 301T1169 406T1204 623V1518H1530V580Q1530 392 1489 284T1364 108T1150 6T836 -29ZM368 1975H755L1044 1600H759L368 1975Z"/><glyph unicode="Ú" horiz-adv-x="1671" d="M911 1975H1298L907 1600H622L911 1975ZM836 -29Q653 -29 522 6T307 108T182 284T141 580V1518H477V623Q477 479 512 408T625 302T840 268Q977 268 1055 301T1169 406T1204 623V1518H1530V580Q1530 392 1489 284T1364 108T1150 6T836 -29Z"/><glyph unicode="Û" horiz-adv-x="1671" d="M667 1975H999L1316 1600H1015L829 1776L645 1600H350L667 1975ZM836 -29Q653 -29 522 6T307 108T182 284T141 580V1518H477V623Q477 479 512 408T625 302T840 268Q977 268 1055 301T1169 406T1204 623V1518H1530V580Q1530 392 1489 284T1364 108T1150 6T836 -29Z"/><glyph unicode="Ü" horiz-adv-x="1671" d="M456 1889H747V1610H456V1889ZM921 1889H1210V1610H921V1889ZM836 -29Q653 -29 522 6T307 108T182 284T141 580V1518H477V623Q477 479 512 408T625 302T840 268Q977 268 1055 301T1169 406T1204 623V1518H1530V580Q1530 392 1489 284T1364 108T1150 6T836 -29Z"/><glyph unicode="Ý" horiz-adv-x="1556" d="M6 1518H367L784 834L1202 1518H1548L944 532V0H610V532L6 1518ZM854 1975H1241L850 1600H565L854 1975Z"/><glyph unicode="Þ" horiz-adv-x="1556" d="M152 1518H479V1315H881Q1094 1315 1227 1264T1424 1105T1487 803Q1487 597 1420 482T1216 314T864 260H479V0H152V1518ZM879 549Q1030 549 1090 602T1151 791Q1151 926 1093 977T874 1028H479V549H879Z"/><glyph unicode="ß" horiz-adv-x="1423" d="M127 1063Q127 1344 269 1475T707 1606Q967 1606 1102 1503T1237 1192Q1237 1038 1199 956T1061 831Q1174 808 1235 764T1327 644T1358 449Q1358 262 1298 172T1101 41T717 0H594V272H707Q832 272 904 291T1008 350T1040 471Q1040 552 1005 589T886 641T641 657V909Q798 909 859 951T920 1106Q920 1206 867 1250T700 1294Q562 1294 503 1234T444 1051V0H127V1063Z"/><glyph unicode="à" horiz-adv-x="1321" d="M487 -18Q265 -18 158 65T51 340Q51 493 121 580T343 706T795 745H842L836 803Q828 855 777 879T612 903Q526 903 437 878T276 809L117 1044Q210 1107 358 1146T647 1186Q844 1186 951 1144T1105 1010T1151 725V373Q1151 316 1158 299T1183 274T1251 266V4Q1224 -4 1116 -4Q1019 -4 974 20T895 111Q798 -18 487 -18ZM356 367Q356 299 400 270T551 240Q706 240 774 297T842 481V524H815Q663 524 577 518T443 497T376 455T356 367ZM196 1645H583L872 1270H587L196 1645Z"/><glyph unicode="á" horiz-adv-x="1321" d="M487 -18Q265 -18 158 65T51 340Q51 493 121 580T343 706T795 745H842L836 803Q828 855 777 879T612 903Q526 903 437 878T276 809L117 1044Q210 1107 358 1146T647 1186Q844 1186 951 1144T1105 1010T1151 725V373Q1151 316 1158 299T1183 274T1251 266V4Q1224 -4 1116 -4Q1019 -4 974 20T895 111Q798 -18 487 -18ZM356 367Q356 299 400 270T551 240Q706 240 774 297T842 481V524H815Q663 524 577 518T443 497T376 455T356 367ZM739 1645H1126L735 1270H450L739 1645Z"/><glyph unicode="â" horiz-adv-x="1321" d="M487 -18Q265 -18 158 65T51 340Q51 493 121 580T343 706T795 745H842L836 803Q828 855 777 879T612 903Q526 903 437 878T276 809L117 1044Q210 1107 358 1146T647 1186Q844 1186 951 1144T1105 1010T1151 725V373Q1151 316 1158 299T1183 274T1251 266V4Q1224 -4 1116 -4Q1019 -4 974 20T895 111Q798 -18 487 -18ZM356 367Q356 299 400 270T551 240Q706 240 774 297T842 481V524H815Q663 524 577 518T443 497T376 455T356 367ZM495 1645H827L1144 1270H843L657 1446L473 1270H178L495 1645Z"/><glyph unicode="ã" horiz-adv-x="1321" d="M487 -18Q265 -18 158 65T51 340Q51 493 121 580T343 706T795 745H842L836 803Q828 855 777 879T612 903Q526 903 437 878T276 809L117 1044Q210 1107 358 1146T647 1186Q844 1186 951 1144T1105 1010T1151 725V373Q1151 316 1158 299T1183 274T1251 266V4Q1224 -4 1116 -4Q1019 -4 974 20T895 111Q798 -18 487 -18ZM356 367Q356 299 400 270T551 240Q706 240 774 297T842 481V524H815Q663 524 577 518T443 497T376 455T356 367ZM170 1407Q348 1628 514 1628Q568 1628 605 1611T673 1573T732 1535T796 1518Q869 1518 968 1638L1147 1493Q964 1268 802 1268Q751 1268 714 1285T646 1323T586 1361T520 1378Q442 1378 348 1262L170 1407Z"/><glyph unicode="ä" horiz-adv-x="1321" d="M487 -18Q265 -18 158 65T51 340Q51 493 121 580T343 706T795 745H842L836 803Q828 855 777 879T612 903Q526 903 437 878T276 809L117 1044Q210 1107 358 1146T647 1186Q844 1186 951 1144T1105 1010T1151 725V373Q1151 316 1158 299T1183 274T1251 266V4Q1224 -4 1116 -4Q1019 -4 974 20T895 111Q798 -18 487 -18ZM356 367Q356 299 400 270T551 240Q706 240 774 297T842 481V524H815Q663 524 577 518T443 497T376 455T356 367ZM284 1559H575V1280H284V1559ZM749 1559H1038V1280H749V1559Z"/><glyph unicode="å" horiz-adv-x="1321" d="M487 -18Q265 -18 158 65T51 340Q51 493 121 580T343 706T795 745H842L836 803Q828 855 777 879T612 903Q526 903 437 878T276 809L117 1044Q210 1107 358 1146T647 1186Q844 1186 951 1144T1105 1010T1151 725V373Q1151 316 1158 299T1183 274T1251 266V4Q1224 -4 1116 -4Q1019 -4 974 20T895 111Q798 -18 487 -18ZM356 367Q356 299 400 270T551 240Q706 240 774 297T842 481V524H815Q663 524 577 518T443 497T376 455T356 367ZM661 1237Q520 1237 444 1314T368 1534Q368 1677 444 1756T661 1835Q796 1835 874 1755T952 1534Q952 1394 874 1316T661 1237ZM661 1395Q727 1395 759 1431T792 1534Q792 1605 758 1640T661 1675Q528 1675 528 1534Q528 1395 661 1395Z"/><glyph unicode="æ" horiz-adv-x="2025" d="M1434 -23Q1088 -23 962 148Q920 86 866 50T737 -2T487 -18Q332 -18 237 19T96 131T51 340Q51 495 120 581T339 706T795 745H842L836 803Q828 855 777 879T612 903Q526 903 437 878T276 809L117 1044Q210 1107 358 1146T647 1186Q786 1186 877 1159T1020 1074Q1158 1186 1432 1186Q1696 1186 1820 1061T1950 648V586L1948 459H1141Q1152 379 1184 333T1275 262T1434 238Q1551 238 1636 262T1798 344L1960 135Q1842 46 1723 12T1434 -23ZM356 367Q356 295 399 268T549 240Q706 240 774 296T842 481V524H815Q616 524 522 512T392 471T356 367ZM1655 688Q1651 794 1629 835T1559 897T1423 918Q1296 918 1229 869T1145 715L1141 688H1655Z"/><glyph unicode="ç" horiz-adv-x="1202" d="M666 -18Q458 -18 327 47T134 240T72 582Q72 801 137 931T338 1123T680 1186Q981 1186 1151 997L926 784Q869 844 810 867T680 891Q532 891 464 818T395 573Q395 450 424 384T516 285T682 252Q761 252 820 277T944 365L1149 168Q1031 59 925 21T666 -18ZM851 -510Q698 -510 577 -442L657 -293Q755 -342 839 -342Q912 -342 940 -322T968 -258Q968 -220 939 -202T844 -184L788 -186L726 -147L761 14H941L923 -86H944Q1044 -86 1087 -105T1154 -166T1179 -281Q1179 -397 1100 -453T851 -510Z"/><glyph unicode="è" horiz-adv-x="1268" d="M676 -23Q473 -23 339 38T138 230T72 582Q72 801 140 932T342 1124T674 1186Q938 1186 1061 1061T1191 648V568L1190 459H383Q394 379 426 333T517 262T676 238Q793 238 878 262T1040 344L1202 135Q1087 49 964 13T676 -23ZM897 688Q891 785 867 829T795 896T664 918Q570 918 513 893T426 821T383 688H897ZM168 1645H555L844 1270H559L168 1645Z"/><glyph unicode="é" horiz-adv-x="1268" d="M711 1645H1098L707 1270H422L711 1645ZM676 -23Q473 -23 339 38T138 230T72 582Q72 801 140 932T342 1124T674 1186Q938 1186 1061 1061T1191 648V568L1190 459H383Q394 379 426 333T517 262T676 238Q793 238 878 262T1040 344L1202 135Q1087 49 964 13T676 -23ZM897 688Q891 785 867 829T795 896T664 918Q570 918 513 893T426 821T383 688H897Z"/><glyph unicode="ê" horiz-adv-x="1268" d="M467 1645H799L1116 1270H815L629 1446L445 1270H150L467 1645ZM676 -23Q473 -23 339 38T138 230T72 582Q72 801 140 932T342 1124T674 1186Q938 1186 1061 1061T1191 648V568L1190 459H383Q394 379 426 333T517 262T676 238Q793 238 878 262T1040 344L1202 135Q1087 49 964 13T676 -23ZM897 688Q891 785 867 829T795 896T664 918Q570 918 513 893T426 821T383 688H897Z"/><glyph unicode="ë" horiz-adv-x="1268" d="M256 1559H547V1280H256V1559ZM721 1559H1010V1280H721V1559ZM676 -23Q473 -23 339 38T138 230T72 582Q72 801 140 932T342 1124T674 1186Q938 1186 1061 1061T1191 648V568L1190 459H383Q394 379 426 333T517 262T676 238Q793 238 878 262T1040 344L1202 135Q1087 49 964 13T676 -23ZM897 688Q891 785 867 829T795 896T664 918Q570 918 513 893T426 821T383 688H897Z"/><glyph unicode="ì" horiz-adv-x="600" d="M-125 1645H266L457 1270H166L-125 1645ZM139 1159H459V0H139V1159Z"/><glyph unicode="í" horiz-adv-x="600" d="M332 1645H725L434 1270H143L332 1645ZM139 1159H459V0H139V1159Z"/><glyph unicode="î" horiz-adv-x="600" d="M141 1645H457L723 1270H430L295 1446L160 1270H-125L141 1645ZM139 1159H459V0H139V1159Z"/><glyph unicode="ï" horiz-adv-x="600" d="M-33 1559H225V1280H-33V1559ZM375 1559H633V1280H375V1559ZM139 1159H459V0H139V1159Z"/><glyph unicode="ð" horiz-adv-x="1358" d="M569 1382L696 1408Q651 1467 596 1532L905 1632Q976 1565 1036 1477L1303 1532V1323L1142 1290Q1284 984 1284 627Q1284 290 1138 134T676 -23Q378 -23 225 118T72 541Q72 822 201 960T580 1098Q698 1098 779 1081T905 1016Q885 1106 819 1224L569 1174V1382ZM676 252Q821 252 891 323T961 549Q961 701 893 769T676 838Q533 838 464 770T395 549Q395 396 465 324T676 252Z"/><glyph unicode="ñ" horiz-adv-x="1360" d="M127 1141L377 1159L403 1059Q520 1186 823 1186Q974 1186 1064 1138T1197 992T1239 702V0H920V639Q920 746 900 791T835 859T709 883Q614 883 557 857T475 780T449 625V0H127V1141ZM187 1407Q365 1628 531 1628Q585 1628 622 1611T690 1573T749 1535T813 1518Q886 1518 985 1638L1164 1493Q981 1268 819 1268Q768 1268 731 1285T663 1323T603 1361T537 1378Q459 1378 365 1262L187 1407Z"/><glyph unicode="ò" horiz-adv-x="1354" d="M678 -23Q369 -23 221 124T72 582Q72 890 219 1038T678 1186Q987 1186 1134 1039T1282 582Q1282 270 1133 124T678 -23ZM678 252Q824 252 892 327T961 573Q961 744 893 818T678 893Q531 893 463 818T395 573Q395 402 463 327T678 252ZM211 1645H598L887 1270H602L211 1645Z"/><glyph unicode="ó" horiz-adv-x="1354" d="M754 1645H1141L750 1270H465L754 1645ZM678 -23Q369 -23 221 124T72 582Q72 890 219 1038T678 1186Q987 1186 1134 1039T1282 582Q1282 270 1133 124T678 -23ZM678 252Q824 252 892 327T961 573Q961 744 893 818T678 893Q531 893 463 818T395 573Q395 402 463 327T678 252Z"/><glyph unicode="ô" horiz-adv-x="1354" d="M510 1645H842L1159 1270H858L672 1446L488 1270H193L510 1645ZM678 -23Q369 -23 221 124T72 582Q72 890 219 1038T678 1186Q987 1186 1134 1039T1282 582Q1282 270 1133 124T678 -23ZM678 252Q824 252 892 327T961 573Q961 744 893 818T678 893Q531 893 463 818T395 573Q395 402 463 327T678 252Z"/><glyph unicode="õ" horiz-adv-x="1354" d="M678 -23Q369 -23 221 124T72 582Q72 890 219 1038T678 1186Q987 1186 1134 1039T1282 582Q1282 270 1133 124T678 -23ZM678 252Q824 252 892 327T961 573Q961 744 893 818T678 893Q531 893 463 818T395 573Q395 402 463 327T678 252ZM185 1407Q363 1628 529 1628Q583 1628 620 1611T688 1573T747 1535T811 1518Q884 1518 983 1638L1162 1493Q979 1268 817 1268Q766 1268 729 1285T661 1323T601 1361T535 1378Q457 1378 363 1262L185 1407Z"/><glyph unicode="ö" horiz-adv-x="1354" d="M299 1559H590V1280H299V1559ZM764 1559H1053V1280H764V1559ZM678 -23Q369 -23 221 124T72 582Q72 890 219 1038T678 1186Q987 1186 1134 1039T1282 582Q1282 270 1133 124T678 -23ZM678 252Q824 252 892 327T961 573Q961 744 893 818T678 893Q531 893 463 818T395 573Q395 402 463 327T678 252Z"/><glyph unicode="÷" horiz-adv-x="1479" d="M578 438H901V162H578V438ZM190 866H1288V578H190V866ZM578 1282H901V1006H578V1282Z"/><glyph unicode="ø" horiz-adv-x="1354" d="M678 -23Q550 -23 453 0L397 -88H111L234 105Q72 247 72 582Q72 899 217 1042T678 1186Q804 1186 900 1163L956 1251H1245L1121 1057Q1282 917 1282 582Q1282 264 1137 121T678 -23ZM678 244Q827 244 897 320T967 573Q967 705 929 779L598 249Q634 244 678 244ZM678 901Q530 901 460 827T389 573Q389 442 422 374L745 896Q714 901 678 901Z"/><glyph unicode="ù" horiz-adv-x="1343" d="M674 -18Q462 -18 344 34T174 200T121 541V1159H442V535Q442 474 446 424T472 337T542 280T676 260Q766 260 815 284T886 355T907 537V1159H1223V543Q1223 315 1171 200T1002 34T674 -18ZM207 1645H594L883 1270H598L207 1645Z"/><glyph unicode="ú" horiz-adv-x="1343" d="M750 1645H1137L746 1270H461L750 1645ZM674 -18Q462 -18 344 34T174 200T121 541V1159H442V535Q442 474 446 424T472 337T542 280T676 260Q766 260 815 284T886 355T907 537V1159H1223V543Q1223 315 1171 200T1002 34T674 -18Z"/><glyph unicode="û" horiz-adv-x="1343" d="M506 1645H838L1155 1270H854L668 1446L484 1270H189L506 1645ZM674 -18Q462 -18 344 34T174 200T121 541V1159H442V535Q442 474 446 424T472 337T542 280T676 260Q766 260 815 284T886 355T907 537V1159H1223V543Q1223 315 1171 200T1002 34T674 -18Z"/><glyph unicode="ü" horiz-adv-x="1343" d="M295 1559H586V1280H295V1559ZM760 1559H1049V1280H760V1559ZM674 -18Q462 -18 344 34T174 200T121 541V1159H442V535Q442 474 446 424T472 337T542 280T676 260Q766 260 815 284T886 355T907 537V1159H1223V543Q1223 315 1171 200T1002 34T674 -18Z"/><glyph unicode="ý" horiz-adv-x="1196" d="M-2 1159H344L612 421L872 1159H1198L733 -51Q688 -173 633 -234T493 -321T274 -348L160 -344V-102H246Q310 -102 344 -95T396 -72T426 -16L441 26L-2 1159ZM935 1645H1322L931 1270H646L935 1645Z"/><glyph unicode="þ" horiz-adv-x="1395" d="M127 1589H446V1075Q494 1131 586 1158T827 1186Q1076 1186 1199 1042T1323 582Q1323 268 1195 124T809 -20Q669 -20 581 5T449 88V-338H127V1589ZM745 254Q875 254 936 326T997 569Q997 693 972 759T891 859T745 893Q587 893 518 820T449 569Q449 392 514 323T745 254Z"/><glyph unicode="ÿ" horiz-adv-x="1196" d="M-2 1159H344L612 421L872 1159H1198L733 -51Q688 -173 633 -234T493 -321T274 -348L160 -344V-102H246Q310 -102 344 -95T396 -72T426 -16L441 26L-2 1159ZM480 1559H771V1280H480V1559ZM945 1559H1234V1280H945V1559Z"/><glyph unicode="Ā" horiz-adv-x="1616" d="M637 1528H977L1589 0H1241L1143 250H455L356 0H29L637 1528ZM1036 526L799 1130L561 526H1036ZM375 1835H1235V1579H375V1835Z"/><glyph unicode="ā" horiz-adv-x="1321" d="M487 -18Q265 -18 158 65T51 340Q51 493 121 580T343 706T795 745H842L836 803Q828 855 777 879T612 903Q526 903 437 878T276 809L117 1044Q210 1107 358 1146T647 1186Q844 1186 951 1144T1105 1010T1151 725V373Q1151 316 1158 299T1183 274T1251 266V4Q1224 -4 1116 -4Q1019 -4 974 20T895 111Q798 -18 487 -18ZM356 367Q356 299 400 270T551 240Q706 240 774 297T842 481V524H815Q663 524 577 518T443 497T376 455T356 367ZM231 1505H1091V1249H231V1505Z"/><glyph unicode="Ă" horiz-adv-x="1616" d="M637 1528H977L1589 0H1241L1143 250H455L356 0H29L637 1528ZM1036 526L799 1130L561 526H1036ZM805 1569Q674 1569 588 1609T449 1729T365 1970L596 2013Q624 1892 669 1854T805 1815Q897 1815 942 1854T1014 2013L1248 1972Q1212 1810 1160 1730T1021 1610T805 1569Z"/><glyph unicode="ă" horiz-adv-x="1321" d="M487 -18Q265 -18 158 65T51 340Q51 493 121 580T343 706T795 745H842L836 803Q828 855 777 879T612 903Q526 903 437 878T276 809L117 1044Q210 1107 358 1146T647 1186Q844 1186 951 1144T1105 1010T1151 725V373Q1151 316 1158 299T1183 274T1251 266V4Q1224 -4 1116 -4Q1019 -4 974 20T895 111Q798 -18 487 -18ZM356 367Q356 299 400 270T551 240Q706 240 774 297T842 481V524H815Q663 524 577 518T443 497T376 455T356 367ZM661 1239Q530 1239 444 1279T305 1399T221 1640L452 1683Q480 1562 525 1524T661 1485Q753 1485 798 1524T870 1683L1104 1642Q1068 1480 1016 1400T877 1280T661 1239Z"/><glyph unicode="Ą" horiz-adv-x="1616" d="M637 1528H977L1589 0H1491Q1393 -62 1351 -115T1309 -207Q1309 -252 1334 -268T1413 -285Q1489 -285 1571 -256L1630 -430Q1505 -487 1370 -487Q1213 -487 1138 -435T1063 -270Q1063 -190 1111 -114T1235 10L1143 250H455L356 0H29L637 1528ZM1036 526L799 1130L561 526H1036Z"/><glyph unicode="ą" horiz-adv-x="1321" d="M487 -18Q265 -18 158 65T51 340Q51 493 121 580T343 706T795 745H842Q840 817 819 846T748 889T612 903Q526 903 437 878T276 809L117 1044Q210 1107 358 1146T647 1186Q844 1186 951 1144T1105 1010T1151 725V373Q1151 316 1158 299T1183 274T1251 266V4Q1049 -118 1049 -207Q1049 -252 1074 -268T1153 -285Q1229 -285 1311 -256L1370 -430Q1245 -487 1110 -487Q953 -487 878 -435T803 -270Q803 -189 852 -114T993 12Q927 38 895 111Q798 -18 487 -18ZM551 240Q706 240 774 297T842 481V524H815Q663 524 577 518T443 497T376 455T356 367Q356 299 400 270T551 240Z"/><glyph unicode="Ć" horiz-adv-x="1554" d="M854 1975H1241L850 1600H565L854 1975ZM850 -23Q449 -23 260 167T70 760Q70 1147 270 1344T870 1542Q1064 1542 1207 1491T1466 1323L1235 1092Q1157 1168 1069 1201T868 1235Q634 1235 521 1118T408 756Q408 503 519 390T870 276Q989 276 1076 309T1255 430L1477 213Q1355 86 1204 32T850 -23Z"/><glyph unicode="ć" horiz-adv-x="1202" d="M935 1645H1322L931 1270H646L935 1645ZM666 -18Q458 -18 327 47T134 240T72 582Q72 801 137 931T338 1123T680 1186Q981 1186 1151 997L926 784Q869 844 810 867T680 891Q532 891 464 818T395 573Q395 450 424 384T516 285T682 252Q761 252 820 277T944 365L1149 168Q1031 59 925 21T666 -18Z"/><glyph unicode="Č" horiz-adv-x="1554" d="M293 1975H594L780 1798L965 1975H1259L942 1600H610L293 1975ZM850 -23Q449 -23 260 167T70 760Q70 1147 270 1344T870 1542Q1064 1542 1207 1491T1466 1323L1235 1092Q1157 1168 1069 1201T868 1235Q634 1235 521 1118T408 756Q408 503 519 390T870 276Q989 276 1076 309T1255 430L1477 213Q1355 86 1204 32T850 -23Z"/><glyph unicode="č" horiz-adv-x="1202" d="M374 1645H675L861 1468L1046 1645H1340L1023 1270H691L374 1645ZM666 -18Q458 -18 327 47T134 240T72 582Q72 801 137 931T338 1123T680 1186Q981 1186 1151 997L926 784Q869 844 810 867T680 891Q532 891 464 818T395 573Q395 450 424 384T516 285T682 252Q761 252 820 277T944 365L1149 168Q1031 59 925 21T666 -18Z"/><glyph unicode="Ď" horiz-adv-x="1610" d="M320 1975H621L807 1798L992 1975H1286L969 1600H637L320 1975ZM152 1518H696Q1031 1518 1207 1446T1462 1211T1542 760Q1542 475 1459 311T1197 74T688 0H152V1518ZM707 293Q904 293 1009 334T1159 467T1204 760Q1204 921 1180 1001T1103 1128T955 1195T700 1217H487V293H707Z"/><glyph unicode="ď" horiz-adv-x="1714" d="M1395 1128Q1491 1174 1514 1198T1538 1272H1403V1589H1710V1364Q1710 1235 1690 1177T1619 1078T1464 991L1395 1128ZM575 -23Q324 -23 198 125T72 586Q72 897 201 1041T586 1186Q861 1186 946 1077V1589H1268V12L1022 -10L989 106Q930 38 828 8T575 -23ZM651 254Q807 254 876 330T946 586Q946 710 918 773T827 867T651 897Q518 897 458 827T397 586Q397 407 458 331T651 254Z"/><glyph unicode="Đ" horiz-adv-x="1610" d="M0 899H152V1518H696Q1031 1518 1207 1446T1462 1211T1542 760Q1542 481 1458 317T1194 76T688 0H152V635H0V899ZM707 293Q904 293 1009 334T1159 467T1204 760Q1204 921 1180 1001T1103 1128T955 1195T700 1217H487V899H770V635H487V293H707Z"/><glyph unicode="đ" horiz-adv-x="1395" d="M575 -23Q324 -23 198 125T72 586Q72 897 201 1041T586 1186Q861 1186 946 1077V1235H711V1487H946V1589H1268V1487H1395V1235H1268V12L1022 -10L989 106Q930 38 828 8T575 -23ZM651 254Q807 254 876 330T946 586Q946 710 918 773T827 867T651 897Q518 897 458 827T397 586Q397 407 458 331T651 254Z"/><glyph unicode="Ē" horiz-adv-x="1407" d="M152 1518H1292V1214H487V920H1272V627H487V291H1300V0H152V1518ZM272 1835H1132V1579H272V1835Z"/><glyph unicode="ē" horiz-adv-x="1268" d="M676 -23Q473 -23 339 38T138 230T72 582Q72 801 140 932T342 1124T674 1186Q938 1186 1061 1061T1191 648V568L1190 459H383Q394 379 426 333T517 262T676 238Q793 238 878 262T1040 344L1202 135Q1087 49 964 13T676 -23ZM897 688Q891 785 867 829T795 896T664 918Q570 918 513 893T426 821T383 688H897ZM203 1505H1063V1249H203V1505Z"/><glyph unicode="Ė" horiz-adv-x="1407" d="M152 1518H1292V1214H487V920H1272V627H487V291H1300V0H152V1518ZM538 1880H864V1596H538V1880Z"/><glyph unicode="ė" horiz-adv-x="1268" d="M676 -23Q473 -23 339 38T138 230T72 582Q72 801 140 932T342 1124T674 1186Q938 1186 1061 1061T1191 648V568L1190 459H383Q394 379 426 333T517 262T676 238Q793 238 878 262T1040 344L1202 135Q1087 49 964 13T676 -23ZM897 688Q891 785 867 829T795 896T664 918Q570 918 513 893T426 821T383 688H897ZM469 1550H795V1266H469V1550Z"/><glyph unicode="Ę" horiz-adv-x="1407" d="M152 1518H1292V1214H487V920H1272V627H487V291H1300V0H1133Q1041 -60 1001 -115T961 -207Q961 -252 986 -268T1065 -285Q1102 -285 1155 -276T1243 -254L1303 -428Q1239 -457 1162 -472T1022 -487Q863 -487 789 -435T715 -270Q715 -190 758 -121T877 0H152V1518Z"/><glyph unicode="ę" horiz-adv-x="1268" d="M842 -487Q683 -487 609 -435T535 -270Q535 -197 570 -133T666 -23Q468 -21 337 39T139 229T72 582Q72 801 140 932T342 1124T674 1186Q938 1186 1061 1061T1191 648V568L1190 459H383Q399 338 469 288T676 238Q793 238 878 262T1040 344L1202 135Q1091 53 981 18H983Q889 -40 835 -100T780 -207Q780 -252 806 -268T885 -285Q922 -285 975 -276T1063 -254L1122 -428Q1062 -456 985 -471T842 -487ZM664 918Q532 918 465 865T383 688H897Q891 785 867 829T795 896T664 918Z"/><glyph unicode="Ě" horiz-adv-x="1407" d="M219 1975H520L706 1798L891 1975H1185L868 1600H536L219 1975ZM152 1518H1292V1214H487V920H1272V627H487V291H1300V0H152V1518Z"/><glyph unicode="ě" horiz-adv-x="1268" d="M150 1645H451L637 1468L822 1645H1116L799 1270H467L150 1645ZM676 -23Q473 -23 339 38T138 230T72 582Q72 801 140 932T342 1124T674 1186Q938 1186 1061 1061T1191 648V568L1190 459H383Q394 379 426 333T517 262T676 238Q793 238 878 262T1040 344L1202 135Q1087 49 964 13T676 -23ZM897 688Q891 785 867 829T795 896T664 918Q570 918 513 893T426 821T383 688H897Z"/><glyph unicode="Ğ" horiz-adv-x="1636" d="M846 -23Q569 -23 399 57T150 302T70 760Q70 1156 268 1349T868 1542Q1277 1542 1483 1327L1253 1096Q1168 1175 1076 1205T866 1235Q628 1235 517 1119T406 756Q406 562 451 459T595 308T862 260Q1069 260 1156 329T1243 571V604H819V883H1575V635Q1575 393 1501 253T1267 45T846 -23ZM817 1569Q686 1569 600 1609T461 1729T377 1970L608 2013Q636 1892 681 1854T817 1815Q909 1815 954 1854T1026 2013L1260 1972Q1224 1810 1172 1730T1033 1610T817 1569Z"/><glyph unicode="ğ" horiz-adv-x="1335" d="M641 426Q558 426 488 433V432Q477 413 477 391Q477 354 508 341T668 328Q914 328 1037 300T1214 208T1268 10Q1268 -189 1121 -278T637 -367Q383 -367 262 -341T88 -256T35 -84Q35 126 262 176Q228 200 211 237T193 340Q193 440 250 502Q100 592 100 793Q100 993 233 1089T641 1186L706 1184L1221 1286V1042H1056Q1126 1001 1155 942T1184 793Q1184 601 1054 514T641 426ZM649 -145Q808 -145 874 -116T940 -12Q940 49 880 71T649 94Q538 94 476 83T386 49T358 -27Q358 -75 385 -99T472 -134T649 -145ZM641 639Q759 639 813 672T868 788Q868 868 816 903T641 938Q517 938 466 904T414 788Q414 707 467 673T641 639ZM665 1239Q534 1239 448 1279T309 1399T225 1640L456 1683Q484 1562 529 1524T665 1485Q757 1485 802 1524T874 1683L1108 1642Q1072 1480 1020 1400T881 1280T665 1239Z"/><glyph unicode="Ģ" horiz-adv-x="1636" d="M663 -541Q728 -510 757 -491T796 -452T807 -395H655V-78H979V-303Q979 -425 961 -485T892 -587T733 -676L663 -541ZM846 -23Q569 -23 399 57T150 302T70 760Q70 1156 268 1349T868 1542Q1277 1542 1483 1327L1253 1096Q1168 1175 1076 1205T866 1235Q628 1235 517 1119T406 756Q406 562 451 459T595 308T862 260Q1069 260 1156 329T1243 571V604H819V883H1575V635Q1575 393 1501 253T1267 45T846 -23Z"/><glyph unicode="ģ" horiz-adv-x="1335" d="M504 1464Q504 1590 524 1648T595 1748T754 1837L820 1702Q720 1651 699 1627T678 1556H828V1268H504V1464ZM641 426Q558 426 488 433V432Q477 413 477 391Q477 354 508 341T668 328Q914 328 1037 300T1214 208T1268 10Q1268 -189 1121 -278T637 -367Q383 -367 262 -341T88 -256T35 -84Q35 126 262 176Q228 200 211 237T193 340Q193 440 250 502Q100 592 100 793Q100 993 233 1089T641 1186L706 1184L1221 1286V1042H1056Q1126 1001 1155 942T1184 793Q1184 601 1054 514T641 426ZM649 -145Q808 -145 874 -116T940 -12Q940 49 880 71T649 94Q538 94 476 83T386 49T358 -27Q358 -75 385 -99T472 -134T649 -145ZM641 639Q759 639 813 672T868 788Q868 868 816 903T641 938Q517 938 466 904T414 788Q414 707 467 673T641 639Z"/><glyph unicode="Ī" horiz-adv-x="682" d="M174 1518H508V0H174V1518ZM-87 1835H773V1579H-87V1835Z"/><glyph unicode="ī" horiz-adv-x="600" d="M139 1159H459V0H139V1159ZM-128 1505H732V1249H-128V1505Z"/><glyph unicode="Į" horiz-adv-x="682" d="M174 1518H508V0Q305 -122 305 -207Q305 -252 331 -268T410 -285Q485 -285 567 -256L627 -430Q502 -487 367 -487Q208 -487 134 -435T59 -270Q59 -193 102 -123T229 0H174V1518Z"/><glyph unicode="į" horiz-adv-x="600" d="M139 1159H459V0Q256 -122 256 -207Q256 -252 281 -268T360 -285Q436 -285 518 -256L578 -430Q453 -487 317 -487Q160 -487 85 -435T10 -270Q10 -191 53 -121T180 0H139V1159ZM137 1559H461V1266H137V1559Z"/><glyph unicode="İ" horiz-adv-x="682" d="M174 1518H508V0H174V1518ZM179 1880H505V1596H179V1880Z"/><glyph unicode="ı" horiz-adv-x="600" d="M139 1159H459V0H139V1159Z"/><glyph unicode="Ķ" horiz-adv-x="1556" d="M622 -541Q687 -510 716 -491T755 -452T766 -395H614V-78H938V-303Q938 -425 920 -485T851 -587T692 -676L622 -541ZM152 1518H483V832L1059 1518H1430L917 917L1503 0H1124L699 661L483 408V0H152V1518Z"/><glyph unicode="ķ" horiz-adv-x="1239" d="M462 -541Q527 -510 556 -491T595 -452T606 -395H454V-78H778V-303Q778 -425 760 -485T691 -587T532 -676L462 -541ZM127 1589H444V680L840 1159H1190L801 686L1225 0H868L585 446L444 281V0H127V1589Z"/><glyph unicode="Ĺ" horiz-adv-x="1264" d="M468 1975H855L464 1600H179L468 1975ZM152 1518H487V291H1233V0H152V1518Z"/><glyph unicode="ĺ" horiz-adv-x="698" d="M437 2046H824L433 1671H148L437 2046ZM457 -4Q284 -4 212 79T139 350V1589H459V389Q459 317 480 293T573 268H612V4Q559 -4 457 -4Z"/><glyph unicode="Ļ" horiz-adv-x="1264" d="M477 -541Q542 -510 571 -491T610 -452T621 -395H469V-78H793V-303Q793 -425 775 -485T706 -587T547 -676L477 -541ZM152 1518H487V291H1233V0H152V1518Z"/><glyph unicode="ļ" horiz-adv-x="698" d="M194 -541Q259 -510 288 -491T327 -452T338 -395H186V-78H510V-303Q510 -425 492 -485T423 -587T264 -676L194 -541ZM457 -4Q284 -4 212 79T139 350V1589H459V389Q459 317 480 293T573 268H612V4Q559 -4 457 -4Z"/><glyph unicode="Ľ" horiz-adv-x="1264" d="M629 1128Q725 1174 748 1198T772 1272H637V1589H944V1364Q944 1235 924 1177T853 1078T698 991L629 1128ZM152 1518H487V291H1233V0H152V1518Z"/><glyph unicode="ľ" horiz-adv-x="907" d="M590 1128Q686 1174 709 1198T733 1272H598V1589H905V1364Q905 1235 885 1177T814 1078T659 991L590 1128ZM457 -4Q284 -4 212 79T139 350V1589H459V389Q459 317 480 293T573 268H612V4Q559 -4 457 -4Z"/><glyph unicode="Ł" horiz-adv-x="1264" d="M0 801L152 884V1518H487V1068L768 1223V952L487 797V291H1233V0H152V613L0 530V801Z"/><glyph unicode="ł" horiz-adv-x="829" d="M49 932L229 1035V1589H549V1219L737 1327V1057L549 949V389Q549 317 570 293T662 268H702V4Q649 -4 547 -4Q374 -4 302 78T229 350V765L49 662V932Z"/><glyph unicode="Ń" horiz-adv-x="1686" d="M918 1975H1305L914 1600H629L918 1975ZM152 1518H514L1212 561V1518H1532V0H1225L473 1024V0H152V1518Z"/><glyph unicode="ń" horiz-adv-x="1360" d="M756 1645H1143L752 1270H467L756 1645ZM127 1141L377 1159L403 1059Q520 1186 823 1186Q974 1186 1064 1138T1197 992T1239 702V0H920V639Q920 746 900 791T835 859T709 883Q614 883 557 857T475 780T449 625V0H127V1141Z"/><glyph unicode="Ņ" horiz-adv-x="1686" d="M686 -541Q751 -510 780 -491T819 -452T830 -395H678V-78H1002V-303Q1002 -425 984 -485T915 -587T756 -676L686 -541ZM152 1518H514L1212 561V1518H1532V0H1225L473 1024V0H152V1518Z"/><glyph unicode="ņ" horiz-adv-x="1360" d="M524 -541Q589 -510 618 -491T657 -452T668 -395H516V-78H840V-303Q840 -425 822 -485T753 -587T594 -676L524 -541ZM127 1141L377 1159L403 1059Q520 1186 823 1186Q974 1186 1064 1138T1197 992T1239 702V0H920V639Q920 746 900 791T835 859T709 883Q614 883 557 857T475 780T449 625V0H127V1141Z"/><glyph unicode="Ň" horiz-adv-x="1686" d="M357 1975H658L844 1798L1029 1975H1323L1006 1600H674L357 1975ZM152 1518H514L1212 561V1518H1532V0H1225L473 1024V0H152V1518Z"/><glyph unicode="ň" horiz-adv-x="1360" d="M195 1645H496L682 1468L867 1645H1161L844 1270H512L195 1645ZM127 1141L377 1159L403 1059Q520 1186 823 1186Q974 1186 1064 1138T1197 992T1239 702V0H920V639Q920 746 900 791T835 859T709 883Q614 883 557 857T475 780T449 625V0H127V1141Z"/><glyph unicode="Ō" horiz-adv-x="1747" d="M442 1835H1302V1579H442V1835ZM872 -25Q70 -25 70 760Q70 1542 872 1542Q1677 1542 1677 760Q1677 -25 872 -25ZM872 270Q1108 270 1222 387T1337 754Q1337 1005 1223 1120T872 1235Q637 1235 523 1120T408 754Q408 504 522 387T872 270Z"/><glyph unicode="ō" horiz-adv-x="1354" d="M246 1505H1106V1249H246V1505ZM678 -23Q369 -23 221 124T72 582Q72 890 219 1038T678 1186Q987 1186 1134 1039T1282 582Q1282 270 1133 124T678 -23ZM678 252Q824 252 892 327T961 573Q961 744 893 818T678 893Q531 893 463 818T395 573Q395 402 463 327T678 252Z"/><glyph unicode="Ő" horiz-adv-x="1747" d="M639 1975H1009L649 1600H381L639 1975ZM1192 1975H1562L1202 1600H934L1192 1975ZM872 -25Q70 -25 70 760Q70 1542 872 1542Q1677 1542 1677 760Q1677 -25 872 -25ZM872 270Q1108 270 1222 387T1337 754Q1337 1005 1223 1120T872 1235Q637 1235 523 1120T408 754Q408 504 522 387T872 270Z"/><glyph unicode="ő" horiz-adv-x="1354" d="M443 1645H813L453 1270H185L443 1645ZM996 1645H1366L1006 1270H738L996 1645ZM678 -23Q369 -23 221 124T72 582Q72 890 219 1038T678 1186Q987 1186 1134 1039T1282 582Q1282 270 1133 124T678 -23ZM678 252Q824 252 892 327T961 573Q961 744 893 818T678 893Q531 893 463 818T395 573Q395 402 463 327T678 252Z"/><glyph unicode="Œ" horiz-adv-x="2585" d="M1362 1518H2468V1214H1665V920H2447V627H1665V291H2476V0H1362V117Q1185 -25 872 -25Q466 -25 268 171T70 760Q70 1151 268 1346T872 1542Q1185 1542 1362 1400V1518ZM872 270Q1109 270 1223 384T1337 754Q1337 1010 1223 1122T872 1235Q635 1235 522 1122T408 754Q408 500 522 385T872 270Z"/><glyph unicode="œ" horiz-adv-x="2157" d="M1567 -23Q1251 -23 1117 120Q981 -23 678 -23Q364 -23 218 120T72 582Q72 899 217 1042T678 1186Q835 1186 942 1150T1119 1041Q1255 1186 1565 1186Q1829 1186 1952 1061T2082 648V568L2081 459H1272Q1283 379 1315 333T1406 262T1567 238Q1684 238 1769 262T1931 344L2093 135Q1976 47 1857 12T1567 -23ZM678 252Q824 252 892 327T961 573Q961 744 893 818T678 893Q531 893 463 818T395 573Q395 402 463 327T678 252ZM1788 688Q1782 796 1759 837T1688 898T1554 918Q1460 918 1403 893T1315 820T1272 688H1788Z"/><glyph unicode="Ŕ" horiz-adv-x="1581" d="M866 1975H1253L862 1600H577L866 1975ZM152 1518H885Q1094 1518 1223 1466T1415 1308T1477 1022Q1477 825 1396 708T1157 542L1458 0H1100L820 504H479V0H152V1518ZM874 793Q1025 793 1082 842T1139 1010Q1139 1136 1080 1183T870 1231H479V793H874Z"/><glyph unicode="ŕ" horiz-adv-x="827" d="M497 1645H884L493 1270H208L497 1645ZM127 1141L377 1159L410 1032Q445 1087 545 1127T780 1171V864Q658 863 587 835T483 747T449 573V0H127V1141Z"/><glyph unicode="Ŗ" horiz-adv-x="1581" d="M634 -541Q699 -510 728 -491T767 -452T778 -395H626V-78H950V-303Q950 -425 932 -485T863 -587T704 -676L634 -541ZM152 1518H885Q1094 1518 1223 1466T1415 1308T1477 1022Q1477 825 1396 708T1157 542L1458 0H1100L820 504H479V0H152V1518ZM874 793Q1025 793 1082 842T1139 1010Q1139 1136 1080 1183T870 1231H479V793H874Z"/><glyph unicode="ŗ" horiz-adv-x="827" d="M390 -541Q455 -510 484 -491T523 -452T534 -395H382V-78H706V-303Q706 -425 688 -485T619 -587T460 -676L390 -541ZM127 1141L377 1159L410 1032Q445 1087 545 1127T780 1171V864Q658 863 587 835T483 747T449 573V0H127V1141Z"/><glyph unicode="Ř" horiz-adv-x="1581" d="M305 1975H606L792 1798L977 1975H1271L954 1600H622L305 1975ZM152 1518H885Q1094 1518 1223 1466T1415 1308T1477 1022Q1477 825 1396 708T1157 542L1458 0H1100L820 504H479V0H152V1518ZM874 793Q1025 793 1082 842T1139 1010Q1139 1136 1080 1183T870 1231H479V793H874Z"/><glyph unicode="ř" horiz-adv-x="813" d="M-75 1645H226L412 1468L597 1645H891L574 1270H242L-75 1645ZM127 1141L377 1159L410 1032Q445 1087 545 1127T780 1171V864Q658 863 587 835T483 747T449 573V0H127V1141Z"/><glyph unicode="Ś" horiz-adv-x="1518" d="M836 1975H1223L832 1600H547L836 1975ZM768 -23Q541 -23 358 28T45 176L213 418Q454 256 758 256Q893 256 968 273T1077 326T1110 440Q1110 493 1079 525T979 579T750 623Q484 660 364 712T189 852T133 1083Q133 1326 281 1434T766 1542Q1154 1542 1380 1393L1200 1133Q1124 1184 1000 1216T762 1249Q649 1249 586 1234T495 1187T467 1092Q467 1042 496 1011T585 959T834 911Q1047 881 1152 847T1319 761T1411 634T1442 457Q1442 203 1279 90T768 -23Z"/><glyph unicode="ś" horiz-adv-x="1174" d="M923 1645H1310L919 1270H634L923 1645ZM573 -18Q236 -18 20 127L184 362Q271 306 381 274T594 242Q725 242 764 262T803 338Q803 368 789 385T741 414T598 440Q437 462 369 480T249 526T163 593T111 688T92 823Q92 1011 215 1098T598 1186Q741 1186 869 1158T1087 1079L934 829Q863 866 773 885T608 905Q535 905 492 897T431 872T412 821Q412 775 449 756T602 721Q713 706 807 688T969 632T1077 529T1116 356Q1116 217 1063 138T892 20T573 -18Z"/><glyph unicode="Ş" horiz-adv-x="1518" d="M768 -23Q541 -23 358 28T45 176L213 418Q454 256 758 256Q893 256 968 273T1077 326T1110 440Q1110 493 1079 525T979 579T750 623Q484 660 364 712T189 852T133 1083Q133 1326 281 1434T766 1542Q1154 1542 1380 1393L1200 1133Q1124 1184 1000 1216T762 1249Q649 1249 586 1234T495 1187T467 1092Q467 1042 496 1011T585 959T834 911Q1047 881 1152 847T1319 761T1411 634T1442 457Q1442 203 1279 90T768 -23ZM758 -510Q605 -510 484 -442L564 -293Q662 -342 746 -342Q819 -342 847 -322T875 -258Q875 -220 846 -202T751 -184L695 -186L633 -147L668 14H848L830 -86H851Q951 -86 994 -105T1061 -166T1086 -281Q1086 -397 1007 -453T758 -510Z"/><glyph unicode="ş" horiz-adv-x="1174" d="M573 -18Q236 -18 20 127L184 362Q271 306 381 274T594 242Q725 242 764 262T803 338Q803 368 789 385T741 414T598 440Q437 462 369 480T249 526T163 593T111 688T92 823Q92 1011 215 1098T598 1186Q741 1186 869 1158T1087 1079L934 829Q863 866 773 885T608 905Q535 905 492 897T431 872T412 821Q412 775 449 756T602 721Q713 706 807 688T969 632T1077 529T1116 356Q1116 217 1063 138T892 20T573 -18ZM845 -510Q692 -510 571 -442L651 -293Q749 -342 833 -342Q906 -342 934 -322T962 -258Q962 -220 933 -202T838 -184L782 -186L720 -147L755 14H935L917 -86H938Q1038 -86 1081 -105T1148 -166T1173 -281Q1173 -397 1094 -453T845 -510Z"/><glyph unicode="Š" horiz-adv-x="1518" d="M275 1975H576L762 1798L947 1975H1241L924 1600H592L275 1975ZM768 -23Q541 -23 358 28T45 176L213 418Q454 256 758 256Q893 256 968 273T1077 326T1110 440Q1110 493 1079 525T979 579T750 623Q484 660 364 712T189 852T133 1083Q133 1326 281 1434T766 1542Q1154 1542 1380 1393L1200 1133Q1124 1184 1000 1216T762 1249Q649 1249 586 1234T495 1187T467 1092Q467 1042 496 1011T585 959T834 911Q1047 881 1152 847T1319 761T1411 634T1442 457Q1442 203 1279 90T768 -23Z"/><glyph unicode="š" horiz-adv-x="1174" d="M362 1645H663L849 1468L1034 1645H1328L1011 1270H679L362 1645ZM573 -18Q236 -18 20 127L184 362Q271 306 381 274T594 242Q725 242 764 262T803 338Q803 368 789 385T741 414T598 440Q437 462 369 480T249 526T163 593T111 688T92 823Q92 1011 215 1098T598 1186Q741 1186 869 1158T1087 1079L934 829Q863 866 773 885T608 905Q535 905 492 897T431 872T412 821Q412 775 449 756T602 721Q713 706 807 688T969 632T1077 529T1116 356Q1116 217 1063 138T892 20T573 -18Z"/><glyph unicode="Ţ" horiz-adv-x="1446" d="M567 -541Q632 -510 661 -491T700 -452T711 -395H559V-78H883V-303Q883 -425 865 -485T796 -587T637 -676L567 -541ZM555 1214H29V1518H1417V1214H893V0H555V1214Z"/><glyph unicode="ţ" horiz-adv-x="928" d="M258 -541Q323 -510 352 -491T391 -452T402 -395H250V-78H574V-303Q574 -425 556 -485T487 -587T328 -676L258 -541ZM51 1159H257L311 1442L561 1493V1159H836V885H561V408Q561 343 575 318T620 280T711 268H836V0Q800 -4 692 -4H645Q494 -4 408 30T282 140T242 360V885H51V1159Z"/><glyph unicode="Ť" horiz-adv-x="1446" d="M238 1975H539L725 1798L910 1975H1204L887 1600H555L238 1975ZM555 1214H29V1518H1417V1214H893V0H555V1214Z"/><glyph unicode="ť" horiz-adv-x="928" d="M672 1427Q749 1466 770 1482T800 1517T809 1569H680V1870H971V1655Q971 1532 953 1478T888 1385T737 1298L672 1427ZM51 1159H257L311 1442L561 1493V1159H836V885H561V408Q561 343 575 318T620 280T711 268H836V0Q800 -4 692 -4H645Q494 -4 408 30T282 140T242 360V885H51V1159Z"/><glyph unicode="Ū" horiz-adv-x="1671" d="M836 -29Q653 -29 522 6T307 108T182 284T141 580V1518H477V623Q477 479 512 408T625 302T840 268Q977 268 1055 301T1169 406T1204 623V1518H1530V580Q1530 392 1489 284T1364 108T1150 6T836 -29ZM403 1835H1263V1579H403V1835Z"/><glyph unicode="ū" horiz-adv-x="1343" d="M674 -18Q462 -18 344 34T174 200T121 541V1159H442V535Q442 474 446 424T472 337T542 280T676 260Q766 260 815 284T886 355T907 537V1159H1223V543Q1223 315 1171 200T1002 34T674 -18ZM242 1505H1102V1249H242V1505Z"/><glyph unicode="Ů" horiz-adv-x="1671" d="M833 1567Q692 1567 616 1644T540 1864Q540 2007 616 2086T833 2165Q968 2165 1046 2085T1124 1864Q1124 1724 1046 1646T833 1567ZM833 1725Q899 1725 931 1761T964 1864Q964 1935 930 1970T833 2005Q700 2005 700 1864Q700 1725 833 1725ZM836 -29Q653 -29 522 6T307 108T182 284T141 580V1518H477V623Q477 479 512 408T625 302T840 268Q977 268 1055 301T1169 406T1204 623V1518H1530V580Q1530 392 1489 284T1364 108T1150 6T836 -29Z"/><glyph unicode="ů" horiz-adv-x="1343" d="M672 1237Q531 1237 455 1314T379 1534Q379 1677 455 1756T672 1835Q807 1835 885 1755T963 1534Q963 1394 885 1316T672 1237ZM672 1395Q738 1395 770 1431T803 1534Q803 1605 769 1640T672 1675Q539 1675 539 1534Q539 1395 672 1395ZM674 -18Q462 -18 344 34T174 200T121 541V1159H442V535Q442 474 446 424T472 337T542 280T676 260Q766 260 815 284T886 355T907 537V1159H1223V543Q1223 315 1171 200T1002 34T674 -18Z"/><glyph unicode="Ű" horiz-adv-x="1671" d="M836 -29Q653 -29 522 6T307 108T182 284T141 580V1518H477V623Q477 479 512 408T625 302T840 268Q977 268 1055 301T1169 406T1204 623V1518H1530V580Q1530 392 1489 284T1364 108T1150 6T836 -29ZM600 1975H970L610 1600H342L600 1975ZM1153 1975H1523L1163 1600H895L1153 1975Z"/><glyph unicode="ű" horiz-adv-x="1343" d="M674 -18Q462 -18 344 34T174 200T121 541V1159H442V535Q442 474 446 424T472 337T542 280T676 260Q766 260 815 284T886 355T907 537V1159H1223V543Q1223 315 1171 200T1002 34T674 -18ZM439 1645H809L449 1270H181L439 1645ZM992 1645H1362L1002 1270H734L992 1645Z"/><glyph unicode="Ų" horiz-adv-x="1671" d="M887 -487Q728 -487 654 -435T580 -270Q580 -199 615 -136T709 -25Q558 -13 452 26T277 132T175 303T141 580V1518H477V623Q477 479 512 408T625 302T840 268Q977 268 1055 301T1169 406T1204 623V1518H1530V580Q1530 410 1496 306T1395 136T1222 29T965 -23Q890 -77 858 -125T825 -207Q825 -252 851 -268T930 -285Q967 -285 1020 -276T1108 -254L1167 -428Q1107 -456 1030 -471T887 -487Z"/><glyph unicode="ų" horiz-adv-x="1343" d="M725 -487Q568 -487 493 -435T418 -270Q418 -127 559 -14Q393 -1 299 56T163 225T121 541V1159H442V535Q442 474 446 424T472 337T542 280T676 260Q766 260 815 284T886 355T907 537V1159H1223V543Q1223 344 1184 234T1058 65T821 -10Q737 -67 701 -119T664 -207Q664 -252 689 -268T768 -285Q805 -285 858 -276T946 -254L1006 -428Q942 -457 865 -472T725 -487Z"/><glyph unicode="Ÿ" horiz-adv-x="1556" d="M6 1518H367L784 834L1202 1518H1548L944 532V0H610V532L6 1518ZM399 1889H690V1610H399V1889ZM864 1889H1153V1610H864V1889Z"/><glyph unicode="Ź" horiz-adv-x="1417" d="M786 1975H1173L782 1600H497L786 1975ZM66 250L899 1214H100V1518H1323V1243L502 291H1346V0H66V250Z"/><glyph unicode="ź" horiz-adv-x="1106" d="M890 1645H1277L886 1270H601L890 1645ZM41 215L616 885H74V1159H1049V940L469 258H1071V0H41V215Z"/><glyph unicode="Ż" horiz-adv-x="1417" d="M66 250L899 1214H100V1518H1323V1243L502 291H1346V0H66V250ZM544 1880H870V1596H544V1880Z"/><glyph unicode="ż" horiz-adv-x="1106" d="M41 215L616 885H74V1159H1049V940L469 258H1071V0H41V215ZM648 1550H974V1266H648V1550Z"/><glyph unicode="Ž" horiz-adv-x="1417" d="M225 1975H526L712 1798L897 1975H1191L874 1600H542L225 1975ZM66 250L899 1214H100V1518H1323V1243L502 291H1346V0H66V250Z"/><glyph unicode="ž" horiz-adv-x="1106" d="M329 1645H630L816 1468L1001 1645H1295L978 1270H646L329 1645ZM41 215L616 885H74V1159H1049V940L469 258H1071V0H41V215Z"/><glyph unicode="ƒ" horiz-adv-x="1260" d="M172 946H451L500 1171Q529 1317 583 1386T733 1486T973 1518H1087V1231H991Q930 1231 893 1216T834 1171T801 1075L773 946H1087V670H714L498 -340H176L392 670H172V946Z"/><glyph unicode="Ș" horiz-adv-x="1518" d="M602 -541Q667 -510 696 -491T735 -452T746 -395H594V-78H918V-303Q918 -425 900 -485T831 -587T672 -676L602 -541ZM768 -23Q541 -23 358 28T45 176L213 418Q454 256 758 256Q893 256 968 273T1077 326T1110 440Q1110 493 1079 525T979 579T750 623Q484 660 364 712T189 852T133 1083Q133 1326 281 1434T766 1542Q1154 1542 1380 1393L1200 1133Q1124 1184 1000 1216T762 1249Q649 1249 586 1234T495 1187T467 1092Q467 1042 496 1011T585 959T834 911Q1047 881 1152 847T1319 761T1411 634T1442 457Q1442 203 1279 90T768 -23Z"/><glyph unicode="ș" horiz-adv-x="1174" d="M430 -541Q495 -510 524 -491T563 -452T574 -395H422V-78H746V-303Q746 -425 728 -485T659 -587T500 -676L430 -541ZM573 -18Q236 -18 20 127L184 362Q271 306 381 274T594 242Q725 242 764 262T803 338Q803 368 789 385T741 414T598 440Q437 462 369 480T249 526T163 593T111 688T92 823Q92 1011 215 1098T598 1186Q741 1186 869 1158T1087 1079L934 829Q863 866 773 885T608 905Q535 905 492 897T431 872T412 821Q412 775 449 756T602 721Q713 706 807 688T969 632T1077 529T1116 356Q1116 217 1063 138T892 20T573 -18Z"/><glyph unicode="Ț" horiz-adv-x="1446" d="M567 -541Q632 -510 661 -491T700 -452T711 -395H559V-78H883V-303Q883 -425 865 -485T796 -587T637 -676L567 -541ZM555 1214H29V1518H1417V1214H893V0H555V1214Z"/><glyph unicode="ț" horiz-adv-x="928" d="M258 -541Q323 -510 352 -491T391 -452T402 -395H250V-78H574V-303Q574 -425 556 -485T487 -587T328 -676L258 -541ZM51 1159H257L311 1442L561 1493V1159H836V885H561V408Q561 343 575 318T620 280T711 268H836V0Q800 -4 692 -4H645Q494 -4 408 30T282 140T242 360V885H51V1159Z"/><glyph unicode="ˆ" horiz-adv-x="1208" d="M438 1645H770L1087 1270H786L600 1446L416 1270H121L438 1645Z"/><glyph unicode="ˇ" horiz-adv-x="1208" d="M121 1645H422L608 1468L793 1645H1087L770 1270H438L121 1645Z"/><glyph unicode="˘" horiz-adv-x="1208" d="M604 1239Q473 1239 387 1279T248 1399T164 1640L395 1683Q423 1562 468 1524T604 1485Q696 1485 741 1524T813 1683L1047 1642Q1011 1480 959 1400T820 1280T604 1239Z"/><glyph unicode="˙" horiz-adv-x="1208" d="M440 1550H766V1266H440V1550Z"/><glyph unicode="˚" horiz-adv-x="1208" d="M604 1237Q463 1237 387 1314T311 1534Q311 1677 387 1756T604 1835Q739 1835 817 1755T895 1534Q895 1394 817 1316T604 1237ZM604 1395Q670 1395 702 1431T735 1534Q735 1605 701 1640T604 1675Q471 1675 471 1534Q471 1395 604 1395Z"/><glyph unicode="˛" horiz-adv-x="1208" d="M643 -487Q486 -487 411 -435T336 -270Q336 -185 387 -108T528 18H784Q690 -39 636 -99T582 -207Q582 -252 607 -268T686 -285Q723 -285 776 -276T864 -254L924 -428Q860 -457 783 -472T643 -487Z"/><glyph unicode="˜" horiz-adv-x="1208" d="M113 1407Q291 1628 457 1628Q511 1628 548 1611T616 1573T675 1535T739 1518Q812 1518 911 1638L1090 1493Q907 1268 745 1268Q694 1268 657 1285T589 1323T529 1361T463 1378Q385 1378 291 1262L113 1407Z"/><glyph unicode="˝" horiz-adv-x="1208" d="M371 1645H741L381 1270H113L371 1645ZM924 1645H1294L934 1270H666L924 1645Z"/><glyph unicode="̄" horiz-adv-x="1208" d="M174 1505H1034V1249H174V1505Z"/><glyph unicode="̦" horiz-adv-x="600" d="M145 -541Q210 -510 239 -491T278 -452T289 -395H137V-78H461V-303Q461 -425 443 -485T374 -587T215 -676L145 -541Z"/><glyph unicode="Δ" horiz-adv-x="1536" d="M76 0L652 1536H884L1456 0H76ZM352 148H1164L752 1256L352 148Z"/><glyph unicode="Ω" horiz-adv-x="1664" d="M832 1376Q644 1376 510 1234T376 836Q376 592 464 432T724 180V0H88V196H536Q416 240 304 406T192 848Q192 1112 358 1330T832 1548Q1140 1548 1306 1338T1472 848Q1472 572 1360 406T1128 196H1576V0H940V180Q1112 272 1200 432T1288 836Q1288 1044 1162 1210T832 1376Z"/><glyph unicode="μ" horiz-adv-x="1352" d="M127 1159H449V535Q449 474 453 424T479 337T549 280T682 260Q773 260 822 284T892 355T913 537V1159H1231V543Q1231 319 1181 203T1018 35T705 -18Q599 -18 541 -4T449 41V-338H127V1159Z"/><glyph unicode="π" horiz-adv-x="1408" d="M296 0V1028H12V1176H1316V1028H996V344Q996 228 1042 184T1152 140Q1200 140 1232 142T1296 156V28Q1248 4 1206 -6T1088 -16Q960 -16 886 64T812 336V1028H484V0H296Z"/><glyph unicode="Ё" horiz-adv-x="1407" d="M325 1889H616V1610H325V1889ZM790 1889H1079V1610H790V1889ZM152 1518H1292V1214H487V920H1272V627H487V291H1300V0H152V1518Z"/><glyph unicode="Ђ" horiz-adv-x="1815" d="M1212 -102H1239Q1286 -102 1307 -91T1337 -54T1346 47V483Q1346 595 1327 639T1265 705T1143 727Q1050 727 996 703T918 630T893 473V0H555V1214H29V1518H1417V1214H893V926Q992 1030 1257 1030Q1410 1030 1503 980T1640 831T1683 547V49Q1683 -110 1647 -192T1527 -310T1272 -346H1212V-102Z"/><glyph unicode="Ѓ" horiz-adv-x="1266" d="M709 1975H1096L705 1600H420L709 1975ZM152 1518H1235V1214H487V0H152V1518Z"/><glyph unicode="Є" horiz-adv-x="1550" d="M846 -23Q449 -23 260 168T70 760Q70 1146 267 1344T846 1542Q1050 1542 1201 1489T1462 1323L1233 1092Q1156 1167 1067 1201T864 1235Q484 1235 413 918H1157V627H406Q434 448 543 362T846 276Q977 276 1069 309T1253 430L1473 213Q1351 86 1200 32T846 -23Z"/><glyph unicode="Ѕ" horiz-adv-x="1518" d="M768 -23Q541 -23 358 28T45 176L213 418Q454 256 758 256Q893 256 968 273T1077 326T1110 440Q1110 493 1079 525T979 579T750 623Q484 660 364 712T189 852T133 1083Q133 1326 281 1434T766 1542Q1154 1542 1380 1393L1200 1133Q1124 1184 1000 1216T762 1249Q649 1249 586 1234T495 1187T467 1092Q467 1042 496 1011T585 959T834 911Q1047 881 1152 847T1319 761T1411 634T1442 457Q1442 203 1279 90T768 -23Z"/><glyph unicode="І" horiz-adv-x="682" d="M174 1518H508V0H174V1518Z"/><glyph unicode="Ї" horiz-adv-x="682" d="M174 1518H508V0H174V1518ZM-34 1889H257V1610H-34V1889ZM431 1889H720V1610H431V1889Z"/><glyph unicode="Ј" horiz-adv-x="932" d="M268 -4H188Q97 -4 45 0V291H227Q353 291 404 335T455 492V1518H788V479Q788 234 666 115T268 -4Z"/><glyph unicode="Љ" horiz-adv-x="2664" d="M84 291H123Q190 291 213 313T236 410V1518H1587V1036H1989Q2201 1036 2335 982T2532 821T2595 532Q2595 254 2443 127T1972 0H1262V1219H571V350Q571 166 494 81T240 -4Q184 -4 149 -2T84 4V291ZM1987 279Q2134 279 2196 333T2259 516Q2259 645 2198 698T1982 752H1587V279H1987Z"/><glyph unicode="Њ" horiz-adv-x="2585" d="M152 1518H487V936H1182V1518H1507V1036H1909Q2121 1036 2255 982T2452 821T2515 532Q2515 254 2363 127T1892 0H1182V623H487V0H152V1518ZM1907 279Q2054 279 2116 333T2179 516Q2179 645 2118 698T1903 752H1507V279H1907Z"/><glyph unicode="Ћ" horiz-adv-x="1815" d="M555 1214H29V1518H1417V1214H893V926Q992 1030 1257 1030Q1410 1030 1503 980T1640 831T1683 547V0H1346V483Q1346 595 1327 639T1265 705T1143 727Q1050 727 996 703T918 630T893 473V0H555V1214Z"/><glyph unicode="Ќ" horiz-adv-x="1556" d="M854 1975H1241L850 1600H565L854 1975ZM152 1518H483V832L1059 1518H1430L917 917L1503 0H1124L699 661L483 408V0H152V1518Z"/><glyph unicode="Ў" horiz-adv-x="1473" d="M23 1518H383L777 714L1130 1518H1470L899 293Q833 154 780 98T652 19T453 -4L276 0V281H395Q471 281 499 287T543 310T585 393L23 1518ZM735 1569Q604 1569 518 1609T379 1729T295 1970L526 2013Q554 1892 599 1854T735 1815Q827 1815 872 1854T944 2013L1178 1972Q1142 1810 1090 1730T951 1610T735 1569Z"/><glyph unicode="Џ" horiz-adv-x="1663" d="M664 0H152V1518H487V285H1178V1518H1509V0H999V-340H664V0Z"/><glyph unicode="А" horiz-adv-x="1616" d="M637 1528H977L1589 0H1241L1143 250H455L356 0H29L637 1528ZM1036 526L799 1130L561 526H1036Z"/><glyph unicode="Б" horiz-adv-x="1559" d="M152 1518H1298V1214H471V987H881Q1098 987 1231 938T1425 787T1487 510Q1487 323 1422 215T1220 54T864 0H152V1518ZM879 276Q1037 276 1094 324T1151 492Q1151 575 1128 620T1051 685T874 705H471V276H879Z"/><glyph unicode="В" horiz-adv-x="1546" d="M152 1518H856Q1161 1518 1296 1426T1432 1126Q1432 993 1383 911T1229 791Q1359 760 1416 673T1473 418Q1473 265 1411 175T1219 42T852 0H152V1518ZM891 279Q1020 279 1076 318T1133 451Q1133 541 1079 581T891 621H481V279H891ZM868 911Q987 911 1039 948T1092 1077Q1092 1164 1039 1198T868 1233H481V911H868Z"/><glyph unicode="Г" horiz-adv-x="1266" d="M152 1518H1235V1214H487V0H152V1518Z"/><glyph unicode="Д" horiz-adv-x="1837" d="M86 291H131Q202 291 225 315T248 410V1518H1602V291H1751V-340H1413V0H422V-340H86V291ZM1264 283V1219H578V397Q578 362 574 332T545 283H1264Z"/><glyph unicode="Е" horiz-adv-x="1407" d="M152 1518H1292V1214H487V920H1272V627H487V291H1300V0H152V1518Z"/><glyph unicode="Ж" horiz-adv-x="2468" d="M432 0H51L639 917L125 1518H498L1073 831V1518H1395V833L1970 1518H2341L1828 917L2415 0H2036L1610 661L1395 409V0H1073V409L858 661L432 0Z"/><glyph unicode="З" horiz-adv-x="1460" d="M719 -25Q290 -25 27 139L188 401Q433 264 705 264Q871 264 933 281T1023 340T1051 461Q1051 536 1019 573T910 628T682 645H317V930H678Q867 930 937 969T1008 1100Q1008 1183 945 1216T696 1249Q573 1249 439 1218T238 1145L63 1399Q174 1465 356 1503T727 1542Q1043 1542 1194 1451T1346 1178Q1346 1020 1304 944T1161 829Q1252 796 1298 751T1365 633T1386 440Q1386 209 1225 92T719 -25Z"/><glyph unicode="И" horiz-adv-x="1686" d="M152 1518H473V561L1171 1518H1532V0H1212V1024L461 0H152V1518Z"/><glyph unicode="Й" horiz-adv-x="1686" d="M152 1518H473V561L1171 1518H1532V0H1212V1024L461 0H152V1518ZM840 1569Q709 1569 623 1609T484 1729T400 1970L631 2013Q659 1892 704 1854T840 1815Q932 1815 977 1854T1049 2013L1283 1972Q1247 1810 1195 1730T1056 1610T840 1569Z"/><glyph unicode="К" horiz-adv-x="1556" d="M152 1518H483V832L1059 1518H1430L917 917L1503 0H1124L699 661L483 408V0H152V1518Z"/><glyph unicode="Л" horiz-adv-x="1753" d="M86 291H127Q194 291 217 314T240 410V1518H1602V0H1264V1219H573V350Q573 166 496 81T242 -4Q187 -4 152 -2T86 4V291Z"/><glyph unicode="М" horiz-adv-x="2003" d="M152 1518H590L1001 481L1413 1518H1849V0H1522V1014L1114 0H860L455 1008V0H152V1518Z"/><glyph unicode="Н" horiz-adv-x="1669" d="M152 1518H487V936H1182V1518H1518V0H1182V623H487V0H152V1518Z"/><glyph unicode="О" horiz-adv-x="1747" d="M872 -25Q70 -25 70 760Q70 1542 872 1542Q1677 1542 1677 760Q1677 -25 872 -25ZM872 270Q1108 270 1222 387T1337 754Q1337 1005 1223 1120T872 1235Q637 1235 523 1120T408 754Q408 504 522 387T872 270Z"/><glyph unicode="П" horiz-adv-x="1663" d="M152 1518H1509V0H1174V1219H483V0H152V1518Z"/><glyph unicode="Р" horiz-adv-x="1556" d="M152 1518H881Q1192 1518 1339 1398T1487 1010Q1487 726 1333 596T864 465H479V0H152V1518ZM879 752Q1026 752 1088 808T1151 993Q1151 1123 1091 1177T874 1231H479V752H879Z"/><glyph unicode="С" horiz-adv-x="1554" d="M850 -23Q449 -23 260 167T70 760Q70 1147 270 1344T870 1542Q1064 1542 1207 1491T1466 1323L1235 1092Q1157 1168 1069 1201T868 1235Q634 1235 521 1118T408 756Q408 503 519 390T870 276Q989 276 1076 309T1255 430L1477 213Q1355 86 1204 32T850 -23Z"/><glyph unicode="Т" horiz-adv-x="1446" d="M555 1214H29V1518H1417V1214H893V0H555V1214Z"/><glyph unicode="У" horiz-adv-x="1473" d="M23 1518H383L777 714L1130 1518H1470L899 293Q833 154 780 98T652 19T453 -4L276 0V281H395Q471 281 499 287T543 310T585 393L23 1518Z"/><glyph unicode="Ф" horiz-adv-x="2257" d="M969 207H692Q481 207 343 266T137 448T70 780Q70 984 137 1103T340 1279T678 1335H969V1518H1288V1335H1583Q1797 1335 1930 1277T2126 1103T2189 788Q2189 576 2120 450T1911 266T1567 207H1288V0H969V207ZM969 494V1049H684Q535 1049 471 984T406 772Q406 626 471 560T678 494H969ZM1581 494Q1722 494 1787 561T1853 772Q1853 921 1788 985T1577 1049H1288V494H1581Z"/><glyph unicode="Х" horiz-adv-x="1599" d="M111 1518H487L813 1050L1120 1518H1491L986 802L1546 0H1165L785 547L424 0H53L611 797L111 1518Z"/><glyph unicode="Ц" horiz-adv-x="1751" d="M1327 0H152V1518H487V285H1178V1518H1509V291H1665V-340H1327V0Z"/><glyph unicode="Ч" horiz-adv-x="1602" d="M1114 514Q1066 463 942 435T639 406Q368 406 241 522T113 905V1518H446V975Q446 868 476 816T572 739T754 713Q883 713 962 742T1077 827T1114 989V1518H1448V0H1114V514Z"/><glyph unicode="Ш" horiz-adv-x="2478" d="M152 1536H487V285H1071V1536H1409V285H1993V1536H2324V0H152V1536Z"/><glyph unicode="Щ" horiz-adv-x="2564" d="M2142 0H152V1536H487V285H1071V1536H1409V285H1993V1536H2324V291H2478V-340H2142V0Z"/><glyph unicode="Ъ" horiz-adv-x="1636" d="M231 1214H80V1518H559V1036H961Q1173 1036 1307 982T1504 821T1567 532Q1567 254 1415 127T944 0H231V1214ZM958 279Q1105 279 1168 333T1231 516Q1231 645 1170 698T954 752H559V279H958Z"/><glyph unicode="Ы" horiz-adv-x="2097" d="M152 1518H479V1036H881Q1093 1036 1227 982T1424 821T1487 532Q1487 254 1335 127T864 0H152V1518ZM879 279Q1026 279 1088 333T1151 516Q1151 645 1090 698T874 752H479V279H879ZM1610 1518H1946V0H1610V1518Z"/><glyph unicode="Ь" horiz-adv-x="1556" d="M152 1518H479V1036H881Q1093 1036 1227 982T1424 821T1487 532Q1487 254 1335 127T864 0H152V1518ZM879 279Q1026 279 1088 333T1151 516Q1151 645 1090 698T874 752H479V279H879Z"/><glyph unicode="Э" horiz-adv-x="1550" d="M393 627V918H1136Q1065 1235 686 1235Q573 1235 485 1201T319 1092L88 1323Q195 1432 344 1487T705 1542Q1088 1542 1284 1344T1481 760Q1481 356 1291 167T705 -23Q503 -23 352 31T78 213L299 430Q393 341 485 309T705 276Q898 276 1007 362T1144 627H393Z"/><glyph unicode="Ю" horiz-adv-x="2398" d="M152 1518H487V926H746Q786 1235 977 1388T1524 1542Q1929 1542 2129 1345T2329 760Q2329 372 2130 174T1524 -25Q1158 -25 966 138T742 627H487V0H152V1518ZM1524 270Q1758 270 1873 386T1989 754Q1989 1006 1874 1120T1524 1235Q1290 1235 1175 1120T1059 754Q1059 503 1174 387T1524 270Z"/><glyph unicode="Я" horiz-adv-x="1581" d="M1100 504H759L481 0H121L423 542Q102 640 102 1022Q102 1203 164 1308T356 1465T696 1518H1427V0H1100V504ZM1100 793V1231H709Q556 1231 498 1182T440 1010Q440 894 496 844T705 793H1100Z"/><glyph unicode="а" horiz-adv-x="1321" d="M487 -18Q265 -18 158 65T51 340Q51 493 121 580T343 706T795 745H842L836 803Q828 855 777 879T612 903Q526 903 437 878T276 809L117 1044Q210 1107 358 1146T647 1186Q844 1186 951 1144T1105 1010T1151 725V373Q1151 316 1158 299T1183 274T1251 266V4Q1224 -4 1116 -4Q1019 -4 974 20T895 111Q798 -18 487 -18ZM356 367Q356 299 400 270T551 240Q706 240 774 297T842 481V524H815Q663 524 577 518T443 497T376 455T356 367Z"/><glyph unicode="б" horiz-adv-x="1356" d="M680 -23Q364 -23 218 133T72 627V807Q72 1102 137 1269T345 1512T752 1589H961V1305H768Q567 1305 481 1229T395 989Q482 1122 776 1122Q947 1122 1059 1065T1228 884T1284 541Q1284 258 1131 118T680 -23ZM680 252Q822 252 891 324T961 549Q961 701 892 769T680 838Q535 838 465 771T395 549Q395 395 466 324T680 252Z"/><glyph unicode="в" horiz-adv-x="1333" d="M127 1159H721Q991 1159 1101 1094T1212 874Q1212 657 1059 604Q1157 581 1200 516T1243 319Q1243 199 1193 131T1034 31T717 0H127V1159ZM750 242Q855 242 892 268T930 358Q930 423 889 447T748 471H430V242H750ZM729 700Q822 700 861 723T901 807Q901 865 865 886T729 907H430V700H729Z"/><glyph unicode="г" horiz-adv-x="1110" d="M127 1159H1065V885H449V0H127V1159Z"/><glyph unicode="д" horiz-adv-x="1587" d="M84 268H123Q190 268 213 290T236 389V1159H1352V268H1503V-340H1204V0H385V-340H84V268ZM1036 252V891H557V367Q557 320 550 295T524 252H1036Z"/><glyph unicode="е" horiz-adv-x="1268" d="M676 -23Q473 -23 339 38T138 230T72 582Q72 801 140 932T342 1124T674 1186Q938 1186 1061 1061T1191 648V568L1190 459H383Q394 379 426 333T517 262T676 238Q793 238 878 262T1040 344L1202 135Q1087 49 964 13T676 -23ZM897 688Q891 785 867 829T795 896T664 918Q570 918 513 893T426 821T383 688H897Z"/><glyph unicode="ж" horiz-adv-x="1888" d="M793 1159H1094V681L1489 1159H1839L1449 685L1874 0H1518L1234 445L1094 282V0H793V283L654 446L371 0H12L438 686L47 1159H399L793 683V1159Z"/><glyph unicode="з" horiz-adv-x="1245" d="M598 -25Q230 -25 25 102L162 334Q344 233 555 233Q691 233 739 243T807 280T827 362Q827 417 804 439T725 470T539 479H276V727H535Q678 727 718 735T776 764T793 829Q793 868 774 889T713 918T549 926Q463 926 363 905T205 850L51 1073Q133 1122 292 1154T604 1186Q879 1186 1000 1118T1122 903Q1122 792 1089 729T971 635Q1066 611 1109 544T1153 334Q1153 149 1027 62T598 -25Z"/><glyph unicode="и" horiz-adv-x="1380" d="M127 1159H440V508L909 1159H1253V0H940V723L418 0H127V1159Z"/><glyph unicode="й" horiz-adv-x="1380" d="M127 1159H440V508L909 1159H1253V0H940V723L418 0H127V1159ZM688 1239Q557 1239 471 1279T332 1399T248 1640L479 1683Q507 1562 552 1524T688 1485Q780 1485 825 1524T897 1683L1131 1642Q1095 1480 1043 1400T904 1280T688 1239Z"/><glyph unicode="к" horiz-adv-x="1239" d="M127 1159H444V680L840 1159H1190L801 686L1225 0H868L585 446L444 281V0H127V1159Z"/><glyph unicode="л" horiz-adv-x="1483" d="M84 268H123Q194 268 218 292T242 389V1159H1356V0H1036V891H557V350Q557 161 485 79T240 -4Q184 -4 149 -2T84 4V268Z"/><glyph unicode="м" horiz-adv-x="1683" d="M127 1159H532L848 403L1163 1159H1565V0H1245V692L967 0H705L428 694V0H127V1159Z"/><glyph unicode="н" horiz-adv-x="1374" d="M127 1159H449V743H926V1159H1247V0H926V455H449V0H127V1159Z"/><glyph unicode="о" horiz-adv-x="1354" d="M678 -23Q369 -23 221 124T72 582Q72 890 219 1038T678 1186Q987 1186 1134 1039T1282 582Q1282 270 1133 124T678 -23ZM678 252Q824 252 892 327T961 573Q961 744 893 818T678 893Q531 893 463 818T395 573Q395 402 463 327T678 252Z"/><glyph unicode="п" horiz-adv-x="1370" d="M127 1159H1243V0H922V891H444V0H127V1159Z"/><glyph unicode="р" horiz-adv-x="1395" d="M127 1141L377 1159L403 1057Q461 1125 566 1155T827 1186Q1076 1186 1199 1042T1323 582Q1323 268 1194 125T809 -18Q668 -18 582 7T449 90V-338H127V1141ZM745 254Q875 254 936 326T997 569Q997 693 972 759T891 859T745 893Q587 893 518 820T449 569Q449 392 514 323T745 254Z"/><glyph unicode="с" horiz-adv-x="1202" d="M666 -18Q458 -18 327 47T134 240T72 582Q72 801 137 931T338 1123T680 1186Q981 1186 1151 997L926 784Q869 844 810 867T680 891Q532 891 464 818T395 573Q395 450 424 384T516 285T682 252Q761 252 820 277T944 365L1149 168Q1031 59 925 21T666 -18Z"/><glyph unicode="т" horiz-adv-x="1219" d="M449 885H47V1159H1171V885H770V0H449V885Z"/><glyph unicode="у" horiz-adv-x="1196" d="M-2 1159H344L612 421L872 1159H1198L733 -51Q688 -173 633 -234T493 -321T274 -348L160 -344V-102H246Q310 -102 344 -95T396 -72T426 -16L441 26L-2 1159Z"/><glyph unicode="ф" horiz-adv-x="2198" d="M946 92Q892 36 804 8T575 -20Q324 -20 198 126T72 586Q72 897 201 1041T586 1186Q861 1186 946 1077V1589H1249V1075Q1297 1131 1389 1158T1630 1186Q1879 1186 2002 1042T2126 582Q2126 273 2000 128T1612 -18Q1470 -18 1383 8T1251 90V-338H946V92ZM651 254Q807 254 876 330T946 586Q946 710 918 773T827 867T651 897Q518 897 458 827T397 586Q397 407 458 331T651 254ZM1548 254Q1678 254 1739 326T1800 569Q1800 693 1775 759T1694 859T1548 893Q1388 893 1320 818T1251 569Q1251 445 1280 380T1372 284T1548 254Z"/><glyph unicode="х" horiz-adv-x="1227" d="M49 1159H408L632 838L842 1159H1180L795 604L1217 0H856L596 374L348 0H10L434 606L49 1159Z"/><glyph unicode="ц" horiz-adv-x="1479" d="M1094 0H127V1159H449V260H926V1159H1243V268H1395V-340H1094V0Z"/><glyph unicode="ч" horiz-adv-x="1343" d="M897 383Q851 324 752 292T514 260Q362 260 271 310T137 459T94 743V1159H416V807Q416 702 437 656T504 587T631 563Q727 563 784 589T868 668T895 821V1159H1217V0H897V383Z"/><glyph unicode="ш" horiz-adv-x="2105" d="M127 1159H449V260H895V1159H1217V260H1661V1159H1976V0H127V1159Z"/><glyph unicode="щ" horiz-adv-x="2214" d="M1829 0H127V1159H449V260H895V1159H1217V260H1661V1159H1976V268H2130V-340H1829V0Z"/><glyph unicode="ъ" horiz-adv-x="1430" d="M236 885H84V1159H555V877H881Q1115 877 1231 774T1348 451Q1348 0 866 0H236V885ZM815 248Q924 248 973 292T1022 438Q1022 541 976 584T815 627H555V248H815Z"/><glyph unicode="ы" horiz-adv-x="1774" d="M127 1159H444V877H772Q1006 877 1122 774T1239 451Q1239 0 758 0H127V1159ZM707 248Q816 248 864 292T913 438Q913 543 865 585T705 627H444V248H707ZM1325 1159H1647V0H1325V1159Z"/><glyph unicode="ь" horiz-adv-x="1321" d="M127 1159H444V877H772Q1006 877 1122 774T1239 451Q1239 0 758 0H127V1159ZM707 248Q816 248 864 292T913 438Q913 543 865 585T705 627H444V248H707Z"/><glyph unicode="э" horiz-adv-x="1202" d="M303 453V696H804Q787 810 721 858T522 907Q379 907 270 786L53 997Q219 1186 528 1186Q840 1186 985 1044T1130 582Q1130 362 1065 233T868 43T537 -18Q383 -18 275 21T49 168L248 358Q309 300 374 276T524 252Q660 252 724 298T805 453H303Z"/><glyph unicode="ю" horiz-adv-x="1853" d="M127 1159H449V735H595Q618 899 687 994T877 1138T1176 1186Q1486 1186 1634 1039T1782 582Q1782 270 1634 124T1176 -23Q991 -23 868 28T677 183T591 461H449V0H127V1159ZM1176 252Q1324 252 1391 325T1458 573Q1458 747 1392 820T1176 893Q1028 893 962 820T895 573Q895 399 962 326T1176 252Z"/><glyph unicode="я" horiz-adv-x="1366" d="M920 334H641L457 0H113L322 377Q98 466 98 750Q98 959 218 1059T586 1159H1239V0H920V334ZM920 592V893H602Q503 893 465 857T426 741Q426 661 463 627T598 592H920Z"/><glyph unicode="ё" horiz-adv-x="1268" d="M256 1559H547V1280H256V1559ZM721 1559H1010V1280H721V1559ZM676 -23Q473 -23 339 38T138 230T72 582Q72 801 140 932T342 1124T674 1186Q938 1186 1061 1061T1191 648V568L1190 459H383Q394 379 426 333T517 262T676 238Q793 238 878 262T1040 344L1202 135Q1087 49 964 13T676 -23ZM897 688Q891 785 867 829T795 896T664 918Q570 918 513 893T426 821T383 688H897Z"/><glyph unicode="ђ" horiz-adv-x="1366" d="M791 -102H817Q880 -102 901 -79T924 16V592Q924 700 904 745T839 814T713 838Q618 838 562 812T479 734T453 578V0H133V1198H-4V1473H133V1589H453V1473H694V1198H453V1034Q552 1139 829 1139Q980 1139 1071 1090T1203 941T1245 655V-23Q1245 -147 1209 -215T1092 -315T852 -346H791V-102Z"/><glyph unicode="ѓ" horiz-adv-x="1110" d="M892 1645H1279L888 1270H603L892 1645ZM127 1159H1065V885H449V0H127V1159Z"/><glyph unicode="є" horiz-adv-x="1202" d="M666 -18Q363 -18 218 122T72 582Q72 803 137 932T336 1123T680 1186Q987 1186 1151 997L932 786Q872 853 811 880T680 907Q555 907 489 863T402 722L397 696H899V453H397Q412 345 477 299T682 252Q769 252 830 277T950 358L1149 168Q1031 59 925 21T666 -18Z"/><glyph unicode="ѕ" horiz-adv-x="1174" d="M573 -18Q236 -18 20 127L184 362Q271 306 381 274T594 242Q725 242 764 262T803 338Q803 368 789 385T741 414T598 440Q437 462 369 480T249 526T163 593T111 688T92 823Q92 1011 215 1098T598 1186Q741 1186 869 1158T1087 1079L934 829Q863 866 773 885T608 905Q535 905 492 897T431 872T412 821Q412 775 449 756T602 721Q713 706 807 688T969 632T1077 529T1116 356Q1116 217 1063 138T892 20T573 -18Z"/><glyph unicode="і" horiz-adv-x="600" d="M139 1159H459V0H139V1159ZM137 1559H461V1266H137V1559Z"/><glyph unicode="ї" horiz-adv-x="600" d="M-33 1559H225V1280H-33V1559ZM375 1559H633V1280H375V1559ZM139 1159H459V0H139V1159Z"/><glyph unicode="ј" horiz-adv-x="600" d="M6 -102H31Q78 -102 100 -92T130 -55T139 47V1159H459V49Q459 -116 425 -197T312 -312T66 -346H6V-102ZM137 1559H461V1266H137V1559Z"/><glyph unicode="љ" horiz-adv-x="2218" d="M84 268H123Q194 268 218 292T242 389V1159H1343V877H1669Q1903 877 2019 773T2136 451Q2136 0 1655 0H1032V891H557V350Q557 161 485 79T240 -4Q184 -4 149 -2T84 4V268ZM1604 248Q1712 248 1761 292T1810 438Q1810 543 1762 585T1602 627H1343V248H1604Z"/><glyph unicode="њ" horiz-adv-x="2109" d="M127 1159H449V743H924V1159H1235V877H1561Q1794 877 1909 773T2025 451Q2025 0 1546 0H924V455H449V0H127V1159ZM1495 248Q1603 248 1651 292T1700 438Q1700 541 1654 584T1493 627H1235V248H1495Z"/><glyph unicode="ћ" horiz-adv-x="1366" d="M-4 1473H133V1589H453V1473H694V1198H453V1034Q552 1139 829 1139Q980 1139 1071 1090T1203 941T1245 655V0H924V592Q924 700 904 745T839 814T713 838Q618 838 562 812T479 734T453 578V0H133V1198H-4V1473Z"/><glyph unicode="ќ" horiz-adv-x="1239" d="M694 1645H1081L690 1270H405L694 1645ZM127 1159H444V680L840 1159H1190L801 686L1225 0H868L585 446L444 281V0H127V1159Z"/><glyph unicode="ў" horiz-adv-x="1196" d="M-2 1159H344L612 421L872 1159H1198L733 -51Q688 -173 633 -234T493 -321T274 -348L160 -344V-102H246Q310 -102 344 -95T396 -72T426 -16L441 26L-2 1159ZM857 1239Q726 1239 640 1279T501 1399T417 1640L648 1683Q676 1562 721 1524T857 1485Q949 1485 994 1524T1066 1683L1300 1642Q1264 1480 1212 1400T1073 1280T857 1239Z"/><glyph unicode="џ" horiz-adv-x="1370" d="M535 0H127V1159H449V260H926V1159H1243V0H836V-340H535V0Z"/><glyph unicode="Ґ" horiz-adv-x="1266" d="M152 1518H899V1858H1235V1214H487V0H152V1518Z"/><glyph unicode="ґ" horiz-adv-x="1110" d="M127 1159H764V1501H1065V885H449V0H127V1159Z"/><glyph unicode="–" horiz-adv-x="1530" d="M78 815H1452V528H78V815Z"/><glyph unicode="—" horiz-adv-x="1970" d="M78 815H1892V528H78V815Z"/><glyph unicode="‘" horiz-adv-x="600" d="M113 1071Q113 1219 136 1290T216 1413T399 1522L477 1364Q369 1311 340 1278T311 1178H485V809H113V1071Z"/><glyph unicode="’" horiz-adv-x="600" d="M123 963Q194 995 228 1019T275 1070T289 1147H113V1518H485V1255Q485 1097 462 1027T380 907T201 805L123 963Z"/><glyph unicode="‚" horiz-adv-x="600" d="M123 -174Q196 -141 229 -117T275 -66T289 12H113V381H485V117Q485 -33 460 -105T374 -230T201 -332L123 -174Z"/><glyph unicode="“" horiz-adv-x="1087" d="M113 1079Q113 1227 136 1296T217 1416T393 1518L467 1364Q364 1316 335 1283T305 1184H477V823H113V1079ZM612 1079Q612 1227 635 1297T713 1416T889 1518L965 1364Q894 1331 862 1308T816 1259T803 1184H973V823H612V1079Z"/><glyph unicode="”" horiz-adv-x="1087" d="M123 975Q226 1025 255 1058T285 1159H113V1518H477V1262Q477 1113 453 1043T371 923T197 823L123 975ZM618 975Q692 1011 725 1035T770 1085T782 1159H612V1518H973V1262Q973 1116 950 1046T872 926T696 823L618 975Z"/><glyph unicode="„" horiz-adv-x="1087" d="M123 -170Q226 -122 255 -89T285 12H113V371H477V117Q477 -26 452 -97T369 -221T197 -322L123 -170ZM618 -170Q692 -136 725 -112T770 -62T782 12H612V371H973V117Q973 -26 948 -98T865 -222T696 -322L618 -170Z"/><glyph unicode="†" horiz-adv-x="1225" d="M453 834H96V1122H453V1589H770V1122H1128V834H770V-340H453V834Z"/><glyph unicode="‡" horiz-adv-x="1225" d="M453 145H96V434H453V834H96V1122H453V1589H770V1122H1128V834H770V434H1128V145H770V-340H453V145Z"/><glyph unicode="•" horiz-adv-x="795" d="M182 856H614V389H182V856Z"/><glyph unicode="…" horiz-adv-x="1726" d="M113 369H485V0H113V369ZM676 369H1049V0H676V369ZM1239 369H1612V0H1239V369Z"/><glyph unicode="‰" horiz-adv-x="3598" d="M553 539Q318 539 192 668T66 1040Q66 1280 193 1411T553 1542Q781 1542 907 1412T1034 1040Q1034 798 908 669T553 539ZM553 778Q652 778 700 842T748 1040Q748 1294 553 1294Q352 1294 352 1040Q352 778 553 778ZM2003 -18Q1769 -18 1645 113T1520 485Q1520 724 1646 855T2003 987Q2231 987 2358 857T2486 485Q2486 243 2361 113T2003 -18ZM2003 221Q2102 221 2151 284T2200 485Q2200 612 2152 674T2003 737Q1905 737 1856 676T1806 485Q1806 352 1854 287T2003 221ZM3049 -18Q2815 -18 2691 113T2566 485Q2566 724 2692 855T3049 987Q3279 987 3406 855T3533 485Q3533 245 3408 114T3049 -18ZM3049 221Q3150 221 3198 286T3246 485Q3246 737 3049 737Q2853 737 2853 485Q2853 349 2902 285T3049 221ZM1550 1520H1849L999 0H702L1550 1520Z"/><glyph unicode="‹" horiz-adv-x="995" d="M170 578L479 1159H768L483 578L768 0H479L170 578Z"/><glyph unicode="›" horiz-adv-x="995" d="M512 580L227 1159H516L825 580L516 0H227L512 580Z"/><glyph unicode="⁄" horiz-adv-x="1133" d="M850 1518H1135L283 0H0L850 1518Z"/><glyph unicode="€" horiz-adv-x="1470" d="M59 688H294L293 762V807H59V1030H314Q354 1282 505 1412T924 1542Q1069 1542 1166 1524T1366 1454L1225 1190Q1099 1255 932 1255Q802 1255 728 1201T625 1030H1059V807H602V768L603 688H1059V463H636Q700 250 928 250Q1100 250 1227 328L1376 86Q1284 29 1174 2T911 -25Q669 -25 521 94T320 463H59V688Z"/><glyph unicode="№" horiz-adv-x="2933" d="M152 1518H514L1212 561V1518H1532V0H1225L473 1024V0H152V1518ZM2206 565Q1957 565 1837 685T1716 1055Q1716 1305 1837 1423T2206 1542Q2453 1542 2574 1423T2695 1055Q2695 808 2575 687T2206 565ZM2206 791Q2319 791 2375 852T2431 1047Q2431 1180 2375 1241T2206 1303Q2094 1303 2037 1242T1980 1047Q1980 913 2037 852T2206 791ZM1776 463H2636V233H1776V463Z"/><glyph unicode="™" horiz-adv-x="2279" d="M1026 1518H1298L1544 883L1792 1518H2064V575H1829V1122L1620 575H1462L1253 1122V575H1026V1518ZM403 1305H98V1518H948V1305H643V575H403V1305Z"/><glyph unicode="Ω" horiz-adv-x="1664" d="M832 1376Q644 1376 510 1234T376 836Q376 592 464 432T724 180V0H88V196H536Q416 240 304 406T192 848Q192 1112 358 1330T832 1548Q1140 1548 1306 1338T1472 848Q1472 572 1360 406T1128 196H1576V0H940V180Q1112 272 1200 432T1288 836Q1288 1044 1162 1210T832 1376Z"/><glyph unicode="∂" horiz-adv-x="1280" d="M476 -32Q276 -32 166 80T56 360Q56 580 214 750T604 920Q700 920 802 886T964 816Q976 900 976 984Q976 1172 908 1278T720 1384Q592 1384 518 1356T368 1280L324 1444Q400 1488 492 1518T720 1548Q956 1548 1064 1394T1172 968Q1172 552 968 260T476 -32ZM488 128Q831 128 944 684Q912 716 824 748T648 780Q456 780 360 654T264 372Q264 264 318 196T488 128Z"/><glyph unicode="∆" horiz-adv-x="1536" d="M76 0L652 1536H884L1456 0H76ZM352 148H1164L752 1256L352 148Z"/><glyph unicode="∏" horiz-adv-x="1536" d="M332 0V1348H80V1524H1456V1348H1212V0H1004V1356H540V0H332Z"/><glyph unicode="∑" horiz-adv-x="1152" d="M1084 1524V1344H332L796 784L304 188H1080V0H40V172L560 788L68 1380V1524H1084Z"/><glyph unicode="−" horiz-adv-x="1479" d="M190 866H1288V578H190V866Z"/><glyph unicode="∕" horiz-adv-x="1133" d="M850 1518H1135L283 0H0L850 1518Z"/><glyph unicode="∙" horiz-adv-x="600" d="M113 938H485V561H113V938Z"/><glyph unicode="√" horiz-adv-x="1415" d="M66 913H403L606 375L1034 1518H1352L764 -12H428L66 913Z"/><glyph unicode="∞" horiz-adv-x="1835" d="M524 338Q327 338 221 431T115 705Q115 883 221 978T524 1073Q623 1073 718 1027T922 873Q1017 968 1114 1020T1313 1073Q1509 1073 1614 980T1720 705Q1720 528 1615 433T1313 338Q1207 338 1111 388T915 536Q807 434 716 386T524 338ZM532 840Q451 840 409 806T367 705Q367 571 532 571Q588 571 642 606T759 703L753 710Q698 766 644 803T532 840ZM1307 571Q1468 571 1468 705Q1468 774 1430 807T1307 840Q1248 840 1193 803T1081 710L1079 707Q1146 638 1201 605T1307 571Z"/><glyph unicode="∫" horiz-adv-x="1152" d="M-8 -392L56 -260Q116 -280 164 -280Q212 -280 242 -246T288 -112L516 1224Q572 1544 880 1544Q972 1544 1042 1522T1152 1476L1088 1304Q969 1380 868 1380Q776 1380 730 1322T672 1188L448 -224Q428 -332 350 -382T176 -432Q116 -432 66 -420T-8 -392Z"/><glyph unicode="≈" horiz-adv-x="1536" d="M236 400Q228 444 228 480Q228 580 288 652T476 724Q576 724 650 696T788 642T912 598T1020 580Q1096 580 1128 610T1160 684L1156 716H1300Q1308 672 1308 636Q1308 536 1248 464T1060 392Q960 392 886 418T748 470T624 512T516 528Q440 528 408 500T376 432L380 400H236ZM236 860Q228 904 228 940Q228 1040 288 1112T476 1184Q576 1184 650 1156T788 1102T912 1058T1020 1040Q1096 1040 1128 1070T1160 1144L1156 1176H1300Q1308 1132 1308 1096Q1308 996 1248 924T1060 852Q960 852 886 878T748 930T624 972T516 988Q440 988 408 960T376 892L380 860H236Z"/><glyph unicode="≠" horiz-adv-x="1479" d="M426 330H203V608H561L666 836H203V1112H786L887 1327H1151L1049 1112H1278V836H915L811 608H1278V330H690L592 117H328L426 330Z"/><glyph unicode="≤" horiz-adv-x="1479" d="M227 289H944L227 633V838L1171 1288V997L563 727L1171 459V12H227V289Z"/><glyph unicode="≥" horiz-adv-x="1479" d="M307 459L915 727L307 997V1288L1251 838V633L534 289H1251V12H307V459Z"/><glyph unicode="◊" horiz-adv-x="1313" d="M31 760L492 1518H805L1266 760L803 0H489L31 760ZM942 754L645 1270L350 762L649 248L942 754Z"/><glyph unicode="" horiz-adv-x="1704" d="M338 1356Q441 1450 572 1502T852 1554Q1001 1554 1133 1502T1368 1356L1354 1339Q1254 1430 1126 1482T852 1534Q706 1534 579 1482T352 1339L338 1356ZM852 -35Q703 -35 571 18T336 164L350 180Q450 89 578 38T852 -14Q997 -14 1124 37T1352 178L1359 172L1366 164Q1263 70 1132 18T852 -35ZM1430 260Q1610 476 1610 760Q1610 1042 1430 1260L1446 1274Q1533 1171 1581 1040T1630 760Q1630 613 1582 482T1446 246L1430 260ZM258 246Q171 349 123 480T74 760Q74 906 122 1037T258 1272L262 1269L272 1260Q94 1039 94 760Q94 476 274 260L258 246ZM852 123Q613 123 440 281L447 289L455 295Q626 143 852 143Q967 143 1068 183T1247 295L1262 279Q1180 206 1076 165T852 123ZM1249 1223Q1171 1295 1070 1335T852 1376Q625 1376 455 1225L440 1239Q619 1397 852 1397Q1085 1397 1264 1239L1249 1223ZM375 348Q227 530 227 760Q227 877 266 981T373 1169L389 1155Q323 1075 286 974T248 760Q248 535 389 362L375 348ZM1329 350L1315 362Q1456 537 1456 760Q1456 987 1313 1155L1329 1169Q1398 1086 1437 982T1477 760Q1477 530 1329 350ZM1167 1130Q1033 1251 852 1251Q674 1251 539 1133L524 1147Q664 1272 852 1272Q1042 1272 1182 1147L1167 1130ZM852 248Q662 248 522 373L537 389Q671 268 852 268Q1033 268 1165 389L1180 373Q1042 248 852 248ZM1237 432L1221 446Q1333 581 1333 760Q1333 942 1221 1073L1237 1087Q1354 949 1354 760Q1354 570 1237 432ZM467 432Q350 575 350 760Q350 942 465 1087L481 1073Q371 937 371 760Q371 579 481 446L467 432ZM852 348Q704 348 588 449L602 463Q709 369 852 369Q996 369 1100 463L1114 446Q1001 348 852 348ZM1163 498L1147 512Q1235 619 1235 760Q1235 901 1147 1008L1163 1022Q1255 909 1255 760Q1255 611 1163 498ZM541 498Q449 611 449 760Q449 909 541 1022L557 1008Q469 901 469 760Q469 619 557 512L541 498ZM590 1073Q698 1171 852 1171Q1004 1171 1114 1071L1109 1064L1102 1057Q995 1151 852 1151Q708 1151 604 1057L590 1073ZM1106 551L1090 565Q1157 654 1157 760Q1157 867 1087 954L1104 969Q1178 876 1178 760Q1178 642 1106 551ZM641 1014Q732 1092 852 1092Q970 1092 1061 1012L1049 997Q962 1071 852 1071Q744 1071 655 997L641 1014ZM852 428Q737 428 641 506L655 522Q743 449 852 449Q961 449 1049 522L1061 506Q967 428 852 428ZM598 551Q526 642 526 760Q526 876 600 969L614 954Q547 868 547 760Q547 651 614 565L598 551ZM1042 608Q1094 678 1094 760Q1094 844 1040 913L1057 928Q1114 856 1114 760Q1114 663 1057 594L1042 608ZM647 592Q590 664 590 760Q590 857 647 926L662 911Q610 841 610 760Q610 675 664 606L647 592ZM852 492Q754 492 682 553L696 569Q766 512 852 512Q938 512 1006 569L1020 555Q946 492 852 492ZM684 965Q758 1028 852 1028Q948 1028 1020 967L1006 950Q937 1008 852 1008Q764 1008 698 950L684 965ZM733 911L717 928Q777 977 852 977Q927 977 987 928L971 911Q920 956 852 956Q784 956 733 911ZM684 627Q641 687 641 760Q641 833 684 893L700 879Q662 826 662 760Q662 696 700 643L684 627ZM852 543Q777 543 717 592L731 608Q785 563 852 563Q917 563 971 608L985 592Q925 543 852 543ZM1020 627L1004 641Q1042 694 1042 760Q1042 826 1004 879L1018 893Q1063 836 1063 760Q1063 689 1020 627Z"/><glyph unicode="ﬀ" horiz-adv-x="1647" d="M1008 885H590V0H270V885H51V1159H270V1214Q270 1438 374 1532T709 1626L862 1622V1360H752Q666 1360 628 1329T590 1217V1159H1008V1214Q1008 1437 1111 1531T1446 1626Q1545 1626 1599 1622V1360H1489Q1405 1360 1367 1330T1329 1217V1159H1599V885H1329V0H1008V885Z"/><glyph unicode="ﬁ" horiz-adv-x="1468" d="M51 1159H270V1214Q270 1438 374 1532T709 1626L862 1622V1360H752Q666 1360 628 1329T590 1217V1159H862V885H590V0H270V885H51V1159ZM1008 1159H1329V0H1008V1159ZM1006 1559H1331V1266H1006V1559Z"/><glyph unicode="ﬂ" horiz-adv-x="1565" d="M51 1159H270V1214Q270 1438 374 1532T709 1626L862 1622V1360H752Q666 1360 628 1329T590 1217V1159H862V885H590V0H270V885H51V1159ZM1325 -4Q1154 -4 1081 78T1008 350V1589H1329V389Q1329 313 1351 291T1442 268H1481V4Q1428 -4 1325 -4Z"/><glyph unicode="ﬃ" horiz-adv-x="2206" d="M1008 885H590V0H270V885H51V1159H270V1214Q270 1438 374 1532T709 1626L862 1622V1360H752Q666 1360 628 1329T590 1217V1159H1008V1214Q1008 1437 1111 1531T1446 1626Q1545 1626 1599 1622V1360H1489Q1405 1360 1367 1330T1329 1217V1159H1599V885H1329V0H1008V885ZM1745 1159H2066V0H1745V1159ZM1743 1559H2068V1266H1743V1559Z"/><glyph unicode="ﬄ" horiz-adv-x="2304" d="M1008 885H590V0H270V885H51V1159H270V1214Q270 1438 374 1532T709 1626L862 1622V1360H752Q666 1360 628 1329T590 1217V1159H1008V1214Q1008 1437 1111 1531T1446 1626Q1545 1626 1599 1622V1360H1489Q1405 1360 1367 1330T1329 1217V1159H1599V885H1329V0H1008V885ZM2062 -4Q1891 -4 1818 78T1745 350V1589H2066V389Q2066 313 2088 291T2179 268H2218V4Q2167 -4 2062 -4Z"/></font>
</defs>
</svg>
